<?xml version="1.0" encoding="UTF-8" standalone="no"?>
<!DOCTYPE svg PUBLIC "-//W3C//DTD SVG 1.1//EN" "http://www.w3.org/Graphics/SVG/1.1/DTD/svg11.dtd">
<svg xmlns="http://www.w3.org/2000/svg">
<metadata>Created by Icons8</metadata>
<defs>
  <font id="la-solid-900" horiz-adv-x="1024">
    <font-face font-family="la-solid-900" units-per-em="1024" ascent="896" descent="128" font-weight="900"/>
    <missing-glyph horiz-adv-x="0"/>
    <glyph glyph-name="file-contract" unicode="" horiz-adv-x="1024" d="M192 800L192 -32L832 -32L832 588.8124992L822.375008 598.3750016L630.375008 790.3750016L620.812512 800L192 800zM256 736L576 736L576 544L768 544L768 32L256 32L256 736zM640 691.1875008L723.187488 608L640 608L640 691.1875008zM320 608L320 544L512 544L512 608L320 608zM320 480L320 416L704 416L704 480L320 480zM432 384C403.2 384 380.8 364.775008 368 342.375008C355.2 319.975008 352 291.1874880000001 352 259.1874880000001C352 239.987488 358.424992 220.824992 361.624992 201.624992C348.824992 198.424992 336 188.812512 320 188.812512L320 124.812512C342.4 124.812512 364.8 127.975008 384 134.375008C387.2 127.975008 387.224992 124.775008 393.624992 118.375008C406.424992 105.575008 425.6 96 448 96C499.2 96 531.224992 131.212512 553.624992 156.812512C556.824992 163.212512 559.987488 166.424992 563.187488 169.624992C563.187488 166.424992 563.175008 163.2000000000001 566.375008 160C569.575008 153.6 572.787488 147.212512 579.187488 140.812512C585.587488 134.412512 598.4 128 608 128C627.2 128 639.975008 140.7874880000001 646.375008 147.187488C652.775008 153.587488 659.224992 163.2249920000001 665.624992 169.624992C678.424992 182.424992 688.012512 192 700.812512 192L700.812512 256C662.412512 256 633.624992 233.5750080000001 617.624992 214.375008C617.624992 217.575008 617.575008 220.8 614.375008 224C611.175008 230.4 608.024992 236.775008 601.624992 246.375008C595.224992 255.975008 585.6 256 576 256C550.4 256 540.787488 239.975008 531.187488 230.375008C521.587488 220.775008 512.024992 207.987488 505.624992 195.187488C486.424992 172.7874880000001 473.6 160 448 160C444.8 160 444.824992 163.187488 441.624992 163.187488C444.824992 163.187488 444.8 166.375008 448 166.375008C483.2 195.1750080000001 512 233.6125120000001 512 284.812512C512 310.412512 505.612512 332.8 492.812512 352C480.012512 371.2000000000001 457.6 384 432 384zM428.8125120000001 320C438.412512 320 438.424992 320.024992 441.624992 313.624992C444.824992 307.2249920000001 448 297.624992 448 281.624992C448 262.424992 438.375008 243.1874880000001 422.375008 227.1874880000001C422.375008 236.7874880000001 416 249.6 416 256C416 281.6 419.224992 300.775008 425.624992 310.375008C428.824992 316.775008 428.8125120000001 320 428.8125120000001 320z"/>
    <glyph glyph-name="scroll" unicode="" horiz-adv-x="1024" d="M320 768C267.36 768 224 724.64 224 672L224 224L128 224L128 96C128 43.36 171.36 0 224 0L672 0L673 0C725.128 0.5119999999999 768 43.744 768 96L768 544L896 544L896 672C896 724.64 852.64 768 800 768L320 768zM320 704L710 704C706.384 693.888 704 683.264 704 672L704 96C704 77.888 690.112 64 672 64C653.984 63.744 640.256 78.016 640 96L639 224L288 224L288 672C288 690.112 301.888 704 320 704zM800 704C818.112 704 832 690.112 832 672L832 608L768 608L768 672C768 690.112 781.888 704 800 704zM192 160L448 160L575 160L576 160L576 96L576 95C576.128 83.992 578.384 73.888 582 64L224 64C205.888 64 192 77.888 192 96L192 160z"/>
    <glyph glyph-name="unlink" unicode="" horiz-adv-x="1024" d="M696 768C644.750016 768 593 748 554 709L507 662C474.5 629.5 455.250016 588.249984 450 546L514 538C517.624992 567 529.875008 594.875008 552 617L599 664C652.5 717.5 738.5 717.5 792 664C845.5 610.5 845.5 524.5 792 471L745 424L744 424C721.875008 401.749984 694.875008 389.5 666 386L674 322C716.250016 327.2499840000001 757.5 346.5 790 379L837 426C914.875008 503.875008 914.875008 631.124992 837 709C798 748 747.250016 768 696 768zM247 695L201 649L329 521L375 567zM350 446C307.750016 440.749984 266.5 421.5 234 389L187 342C109.124992 264.124992 109.124992 136.875008 187 59C264.875008 -18.875008 392.124992 -18.875008 470 59L517 106C549.5 138.5 568.750016 179.7499840000001 574 222L510 230C506.375008 201 494.124992 173.124992 472 151L425 104C371.5 50.5 285.5 50.5 232 104C178.5 157.5 178.5 243.5 232 297L279 344L280 344C302.124992 366.2499840000001 329.124992 378.5 358 382zM695 247L649 201L777 73L823 119z"/>
    <glyph glyph-name="tablet" unicode="" horiz-adv-x="1024" d="M160 704C107.375008 704 64 660.624992 64 608L64 160C64 107.375008 107.375008 64 160 64L864 64C916.624992 64 960 107.375008 960 160L960 608C960 660.624992 916.624992 704 864 704zM160 640L864 640C881.750016 640 896 625.749984 896 608L896 160C896 142.2499840000001 881.750016 128 864 128L160 128C142.250016 128 128 142.2499840000001 128 160L128 608C128 625.749984 142.250016 640 160 640zM192 416C174.375008 416 160 401.624992 160 384C160 366.375008 174.375008 352 192 352C209.624992 352 224 366.375008 224 384C224 401.624992 209.624992 416 192 416z"/>
    <glyph glyph-name="cloud-with--a-chance-of--meatball" unicode="" horiz-adv-x="1024" d="M512 768C408.736 768 319.128 695.752 295 597C255.128 581.512 222.024 550.008 205 511C93.128 519.288 0 430.24 0 320C0 214.112 86.112 128 192 128L288 128L288 192L192 192C121.376 192 64 249.376 64 320C64 390.624 121.376 448 192 448C200.864 448 209.888 447.272 220 445L252 438L258 469C265.872 504.36 294.64 532.488 330 541L351 546L354 567C365.52 644.888 433.376 704 512 704C572.64 704 627.608 670.24 655 616L667 591L694 600C708.976 605.248 722.624 608 736 608C806.624 608 864 550.624 864 480C864 478.752 864.128 477.12 864 476C863.744 473.888 863.256 472.272 863 470L861 447L882 438C929.264 417.904 960 371.36 960 320C960 249.376 902.624 192 832 192L768 192L768 128L832 128C937.888 128 1024 214.112 1024 320C1024 389.248 987.008 451.984 928 486C924.64 588.976 839.744 672 736 672C723.488 672 710.64 670.752 698 668C656.752 730.24 587.872 768 512 768zM672 480C651.616 480 635.124992 463.508992 635.124992 443.124992C635.124992 441.748992 635.747008 440.593984 635.875008 439.249984C621.379008 451.026016 600.316512 450.691488 586.812512 437.187488C573.308512 423.683488 572.973984 402.620992 584.750016 388.124992C583.405984 388.284992 582.251008 388.875008 580.875008 388.875008C560.523008 388.907008 544 372.384 544 352C544 331.616 560.491008 315.124992 580.875008 315.124992C582.251008 315.124992 583.405984 315.7470080000001 584.750016 315.875008C572.974016 301.379008 573.308512 280.316512 586.812512 266.812512C600.316512 253.308512 621.379008 252.973984 635.875008 264.750016C635.715008 263.405984 635.124992 262.251008 635.124992 260.875008C635.092992 240.523008 651.616 224 672 224C692.384 224 708.875008 240.491008 708.875008 260.875008C708.875008 262.251008 708.252992 263.405984 708.124992 264.750016C722.620992 252.974016 743.683488 253.308512 757.187488 266.812512C770.691488 280.316512 771.025984 301.379008 759.249984 315.875008C760.594016 315.715008 761.748992 315.124992 763.124992 315.124992C783.476992 315.092992 800 331.616 800 352C800 372.384 783.508992 388.875008 763.124992 388.875008C761.748992 388.875008 760.593984 388.252992 759.249984 388.124992C771.025984 402.620992 770.691488 423.683488 757.187488 437.187488C743.683488 450.691488 722.620992 451.026016 708.124992 439.249984C708.284992 440.593984 708.875008 441.748992 708.875008 443.124992C708.907008 463.476992 692.384 480 672 480zM384 416A32 32 0 0 1 352 384A32 32 0 0 1 352 320A32 32 0 0 1 384 288A32 32 0 0 1 416 320A32 32 0 0 1 416 384A32 32 0 0 1 384 416zM480 224C459.616 224 443.124992 207.508992 443.124992 187.124992C443.124992 185.7489920000001 443.747008 184.593984 443.875008 183.2499840000001C429.379008 195.025984 408.316512 194.6914880000001 394.8125120000001 181.187488C381.308512 167.683488 380.973984 146.620992 392.750016 132.124992C391.406016 132.284992 390.251008 132.875008 388.875008 132.875008C368.523008 132.907008 352 116.384 352 96C352 75.616 368.491008 59.124992 388.875008 59.124992C390.251008 59.124992 391.406016 59.7470080000001 392.750016 59.875008C380.973984 45.379008 381.308512 24.316512 394.8125120000001 10.812512C408.316512 -2.691488 429.379008 -3.025984 443.875008 8.750016C443.715008 7.405984 443.124992 6.251008 443.124992 4.875008C443.092992 -15.476992 459.616 -32 480 -32C500.384 -32 516.875008 -15.508992 516.875008 4.875008C516.875008 6.251008 516.252992 7.406016 516.124992 8.750016C530.620992 -3.025984 551.683488 -2.691488 565.187488 10.812512C578.691488 24.316512 579.026016 45.379008 567.249984 59.875008C568.594016 59.715008 569.748992 59.124992 571.124992 59.124992C591.476992 59.092992 608 75.616 608 96C608 116.384 591.508992 132.875008 571.124992 132.875008C569.748992 132.875008 568.594016 132.252992 567.249984 132.124992C579.025984 146.620992 578.691488 167.683488 565.187488 181.187488C551.683488 194.6914880000001 530.620992 195.025984 516.124992 183.2499840000001C516.284992 184.594016 516.875008 185.7489920000001 516.875008 187.124992C516.907008 207.476992 500.384 224 480 224z"/>
    <glyph glyph-name="building" unicode="" horiz-adv-x="1024" d="M128 800L128 -32L480 -32L480 96L544 96L544 -32L896 -32L896 800zM192 736L832 736L832 32L608 32L608 160L416 160L416 32L192 32zM256 672L256 608L384 608L384 672zM448 672L448 608L576 608L576 672zM640 672L640 608L768 608L768 672zM256 544L256 480L384 480L384 544zM448 544L448 480L576 480L576 544zM640 544L640 480L768 480L768 544zM256 416L256 352L384 352L384 416zM448 416L448 352L576 352L576 416zM640 416L640 352L768 352L768 416zM256 288L256 224L384 224L384 288zM448 288L448 224L576 224L576 288zM640 288L640 224L768 224L768 288zM256 160L256 96L384 96L384 160zM640 160L640 96L768 96L768 160z"/>
    <glyph glyph-name="map" unicode="" horiz-adv-x="1024" d="M896 753L851 733L639 642L395 734L383 738L371 733L147 637L128 629L128 15L173 35L385 126L629 34L641 30L653 35L877 131L896 139zM416 658L608 586L608 110L416 182zM352 656L352 181L192 112L192 587zM832 656L832 181L672 112L672 587z"/>
    <glyph glyph-name="jedi" unicode="" horiz-adv-x="1024" d="M495.937504 768C489.569504 768 484.443488 763.054 484.187488 756.75L467.249984 318.1874880000001L422.5 348.562496C417.892 351.6664960000001 411.844512 351.277504 407.8125120000001 347.437504C403.8125120000001 343.629504 402.964512 337.6125120000001 405.8125120000001 332.812512L435.375008 283.1874880000001L373.5 270.375008C368.06 269.287008 364.124992 264.443008 364.124992 258.875008C364.124992 253.307008 368.06 248.432512 373.5 247.312512L435.375008 234.5L405.750016 184.812512C402.934016 180.076512 403.780512 174.027488 407.8125120000001 170.187488C411.620512 166.5714880000001 418.116 166.180992 422.5 169.124992L462.437504 196.312512L458.812512 100.312512C375.068512 117.432512 311.8750016 191.336992 311.8750016 279.624992C311.8750016 331.208992 333.3975040000001 379.048512 372.437504 414.3125120000001C377.9095040000001 419.240512 380.852 426.237504 380.5 433.437504C380.148 440.637504 376.512992 447.240992 370.624992 451.624992C316.7049984 491.560992 285.8124992 552.569504 285.8124992 618.9375008C285.8124992 644.7615008 290.65 670.1204992 300.25 694.3124992C303.258 701.7684992 302.4175008000001 709.876 297.9375008 716.5C293.3935008000001 723.156 285.9664992 727.1249984 278.0624992 727.1249984C273.1984992 727.1249984 268.5015008 725.63 264.4375008 722.75C182.2615008 664.638 126.7450016 579.5109984000001 105.6249984 484.375008L166.5 423.5L97.0624992 423.5C96.1344992 408.908 95.6084992 394.253504 96.3124992 379.437504C97.2084992 359.693504 100.0364992 340.444 103.8124992 321.5L190 235.312512L131.3124992 235.312512C191.9844992 102.608512 324.166496 7.477504 477.062496 0.437504C483.398496 0.149504 489.665504 0 495.937504 0C658.209504 0 797.936992 96.816512 860.624992 235.312512L801.875008 235.312512L888.437504 321.875008C893.269504 346.5790080000001 896 372.0129920000001 896 398.124992C896 406.668992 894.981504 415.082496 894.437504 423.562496L825.437504 423.562496L886.062496 484.187488C864.750496 579.4515008000001 808.975008 665.1484992000001 727.375008 722.8124992C723.311008 725.6924991999999 718.644512 727.1875008 713.812512 727.1875008C705.908512 727.1875008 698.481504 723.2184992 693.937504 716.5624992C689.457504 709.9704992 688.586496 701.8629984 691.562496 694.3750016C701.194496 670.1829984 706.062496 644.7935008 706.062496 618.9375008C706.062496 552.569504 675.170016 491.592992 621.249984 451.624992C615.330016 447.240992 611.727008 440.637504 611.375008 433.437504C611.023008 426.205504 613.965504 419.210016 619.437504 414.249984C667.853504 370.5060160000001 689.083488 306.126496 676.187488 242.062496C661.851488 170.958496 604.358496 114.011488 533.062496 100.187488L529.437504 196.2499840000001L569.375008 169.062496C573.759008 166.0224960000001 580.284992 166.570016 584.124992 170.2499840000001C588.124992 174.057984 588.878496 180.139008 586.062496 184.875008L556.5 234.437504L618.375008 247.312512C623.815008 248.4005120000001 627.750016 253.244512 627.750016 258.812512C627.750016 264.3485120000001 623.783008 269.1605120000001 618.375008 270.312512L556.5 283.1874880000001L586.124992 332.812512C588.940992 337.548512 588.124992 343.567008 584.124992 347.375008C580.156992 351.119008 573.855008 351.634496 569.375008 348.562496L524.687488 318.1874880000001L507.687488 756.6875008C507.463488 763.0235008 502.273504 768.032 495.937504 768z"/>
    <glyph glyph-name="stamp" unicode="" horiz-adv-x="1024" d="M512 803C407.250016 803 322 717.749984 322 613C322 550.749984 351 506.624992 375 473C399 439.375008 416 416.249984 416 383L416 281L153 223L128 218L128 64L160 64L160 32C160 13.624992 168.124992 -3.750016 181 -15C193.875008 -26.250016 210.375008 -32 227 -32L797 -32C813.624992 -32 830.124992 -26.250016 843 -15C855.875008 -3.750016 864 13.624992 864 32L864 64L896 64L896 218L871 223L608 281L608 383C608 416.249984 625 439.375008 649 473C673 506.624992 702 550.749984 702 613C702 717.749984 616.750016 803 512 803zM512 739C582.250016 739 638 683.249984 638 613C638 569.749984 620.250016 542.624992 597 510C573.750016 477.375008 544 438.875008 544 383L544 288L480 288L480 383C480 438.875008 450.250016 477.375008 427 510C403.750016 542.624992 386 569.749984 386 613C386 683.249984 441.750016 739 512 739zM448 224L576 224L832 167L832 128L192 128L192 167zM224 64L800 64L800 33C799.624992 32.749984 799.124992 32 797 32L227 32C224.875008 32 224.375008 32.749984 224 33z"/>
    <glyph glyph-name="alternate-feather" unicode="" horiz-adv-x="1024" d="M864 768C582.304 768 441.553504 614.5724992 373.937504 540.812512L276.3750016 442.375008C221.9429984 388.007008 192 315.709984 192 238.750016L192 192L256.8750016 256.875008C261.0989984000001 309.8670080000001 283.612 359.174496 321.5 397.062496L421.124992 497.562496C479.876992 561.626496 599.315488 691.89 831.187488 703.25C824.10112 558.568352 770.747616 457.702368 716.062496 388L608 352L685.375008 352C663.157024 327.794912 642.129728 308.318528 625.562496 293.124992L594.187488 262.062496L480 224L555.750016 224L525.124992 193.687488C482.820992 151.3834880000001 426.589984 128.062496 366.750016 128.062496L301.3124992 128.062496L598.624992 425.375008L553.375008 470.624992L128 45.249984L173.25 0L237.3124992 64.062496L366.750016 64.062496C443.677984 64.062496 516.004 94.034496 570.5 148.562496L668.750016 246C742.509984 313.552 896 454.272 896 736L896 768L864 768z"/>
    <glyph glyph-name="neutral-face" unicode="" horiz-adv-x="1024" d="M512 768C300.250016 768 128 595.749984 128 384C128 172.2499840000001 300.250016 0 512 0C723.750016 0 896 172.2499840000001 896 384C896 595.749984 723.750016 768 512 768zM512 704C689.124992 704 832 561.124992 832 384C832 206.875008 689.124992 64 512 64C334.875008 64 192 206.875008 192 384C192 561.124992 334.875008 704 512 704zM368 512C341.5 512 320 490.5 320 464C320 437.5 341.5 416 368 416C394.5 416 416 437.5 416 464C416 490.5 394.5 512 368 512zM656 512C629.5 512 608 490.5 608 464C608 437.5 629.5 416 656 416C682.5 416 704 437.5 704 464C704 490.5 682.5 512 656 512zM352 256L352 192L672 192L672 256z"/>
    <glyph glyph-name="eye-slash" unicode="" horiz-adv-x="1024" d="M119 823L73 777L271 580L686 165L905 -55L951 -9L748 194C879.124992 260.7499840000001 976.875008 354.875008 983 361L1004 382L984 405C975.750016 414.624992 780.624992 640 512 640C448.250016 640 388.875008 626.624992 335 607zM512 576C581.250016 576 645.124992 558.249984 702 533C723.624992 497.749984 736 457.624992 736 416C736 357.875008 713.624992 305 677 265L586 356C599.250016 372.375008 608 393.249984 608 416C608 468.875008 564.875008 512 512 512C489.250016 512 468.375008 503.249984 452 490L386 556C425.624992 567.875008 467.5 576 512 576zM212 548C108.375008 484.375008 44.624992 410.5 40 405L20 382L41 361C50.124992 351.875008 259.124992 147.7499840000001 482 130L484 130C493.250016 129.2499840000001 502.750016 128 512 128C521.250016 128 530.750016 129.2499840000001 540 130L542 130C567.5 132 593.124992 136.624992 618 143L563 198C555 196.124992 546.375008 194.875008 538 194L534 193C519 191.7499840000001 504.875008 191.7499840000001 490 193L487 194C373.750016 206.7499840000001 288 301.875008 288 416C288 433.124992 290.124992 449.624992 294 466zM233 485C227.375008 462.5 224 439.624992 224 416C224 364.375008 238 316.124992 262 274C194.124992 314.375008 138.250016 360 109 386C132.875008 409.749984 176.250016 448.375008 233 485zM791 485C847.750016 448.375008 890.124992 408.749984 914 385C884.750016 359 829.875008 314.375008 762 274C786 316.124992 800 364.375008 800 416C800 439.5 796.5 462.5 791 485zM512 448C529.624992 448 544 433.624992 544 416C544 410.749984 542.250016 406.375008 540 402L498 444C502.375008 446.249984 506.750016 448 512 448z"/>
    <glyph glyph-name="peace" unicode="" horiz-adv-x="1024" d="M512 800C282.624 800 96 613.376 96 384C96 154.624 282.624 -32 512 -32C741.376 -32 928 154.624 928 384C928 613.376 741.376 800 512 800zM480 734.3750016L480 399.437504L217.6249984 191.5C181.2909472 246.87344 160 312.972032 160 384C160 567.2788479999999 300.8781376 718.131888 480 734.3750016zM544 734.3750016C723.121856 718.131888 864 567.2788479999999 864 384C864 312.941376 842.675328 246.825472 806.312512 191.437504L544 399.437504L544 734.3750016zM480 317.750016L480 33.624992C392.784416 41.5338880000001 314.8482144 81.454688 257.6249984 141.437504L480 317.750016zM544 317.750016L766.375008 141.437504C709.151776 81.454688 631.215584 41.5338880000001 544 33.624992L544 317.750016z"/>
    <glyph glyph-name="caret-square-up" unicode="" horiz-adv-x="1024" d="M160 736L160 32L864 32L864 736zM224 672L800 672L800 96L224 96zM512 541L489 519L297 327L343 281L512 450L681 281L727 327L535 519z"/>
    <glyph glyph-name="equals" unicode="" horiz-adv-x="1024" d="M160 512L160 448L864 448L864 512zM160 320L160 256L864 256L864 320z"/>
    <glyph glyph-name="swimming-pool" unicode="" horiz-adv-x="1024" d="M384 768C331.124992 768 288 724.875008 288 672L288 268L320 291L352 268L352 672C352 689.624992 366.375008 704 384 704L416 704L416 768zM768 768C715.124992 768 672 724.875008 672 672L672 640L384 640L384 576L672 576L672 512L384 512L384 448L672 448L672 384L384 384L384 320L672 320L672 268L704 291L736 268L736 672C736 689.624992 750.375008 704 768 704L800 704L800 768zM320 233L300 217C300 217 267.875008 192 225 192C182.124992 192 148 217 148 217L108 167C108 167 157.375008 128 225 128C271.750016 128 301.5 143.5 320 155C338.624992 143.624992 369.875008 128 417 128C463.750016 128 493.5 143.5 512 155C530.624992 143.624992 561.875008 128 609 128C655.750016 128 685.5 143.5 704 155C722.624992 143.624992 753.875008 128 801 128C868.624992 128 916 167 916 167L876 217C876 217 843.875008 192 801 192C758.124992 192 724 217 724 217L704 233L684 217C684 217 651.875008 192 609 192C566.124992 192 532 217 532 217L512 233L492 217C492 217 459.875008 192 417 192C374.124992 192 340 217 340 217zM320 105L300 89C300 89 267.875008 64 225 64C182.124992 64 148 89 148 89L108 39C108 39 157.375008 0 225 0C271.750016 0 301.5 15.5 320 27C338.624992 15.624992 369.875008 0 417 0C463.750016 0 493.5 15.5 512 27C530.624992 15.624992 561.875008 0 609 0C655.750016 0 685.5 15.5 704 27C722.624992 15.624992 753.875008 0 801 0C868.624992 0 916 39 916 39L876 89C876 89 843.875008 64 801 64C758.124992 64 724 89 724 89L704 105L684 89C684 89 651.875008 64 609 64C566.124992 64 532 89 532 89L512 105L492 89C492 89 459.875008 64 417 64C374.124992 64 340 89 340 89z"/>
    <glyph glyph-name="drum-steelpan" unicode="" horiz-adv-x="1024" d="M512 704C282.24 704 96 625.216 96 528L96 240C96 142.784 282.24 64 512 64C741.76 64 928 142.784 928 240L928 528C928 625.216 741.76 704 512 704zM512 640C540.58 640 567.495328 638.7370016 592.750016 636.5C598.007648 636.0342912 602.88832 635.3622304 608 634.8124992L608 620.8124992C608 578.5724992 564.8 544 512 544C459.2 544 416 578.5724992 416 620.8124992L416 634.8124992C445.665216 638.0028128 477.47008 640 512 640zM412.687488 634.4375008C401.976448 633.3122848 391.70864 631.9076832000001 381.624992 630.3750016C385.99856 631.0418144 390.1274880000001 631.8324544 394.624992 632.4375008C400.43584 633.2192256000001 406.67072 633.765456 412.687488 634.4375008zM611.312512 634.4375008C617.32928 633.765456 623.56416 633.2192256000001 629.375008 632.4375008C633.872512 631.8324544 638.00144 631.0418144 642.375008 630.3750016C632.29136 631.9076832000001 622.023552 633.3122848 611.312512 634.4375008zM368.750016 628.3750016C363.1260480000001 627.4080223999999 357.792864 626.2614848000001 352.375008 625.1875008C355.27216 625.7533056 357.602336 626.5235167999999 360.562496 627.0624992C363.19056 627.5410144 366.072384 627.9185408000001 368.750016 628.3750016zM655.249984 628.3750016C657.927616 627.9185408000001 660.80944 627.5410144 663.437504 627.0624992C666.397664 626.5235167999999 668.72784 625.7533056 671.624992 625.1875008C666.207136 626.2614848000001 660.873952 627.4080223999999 655.249984 628.3750016zM336.624992 621.5624992L369.937504 563.812512C384.017504 540.132512 387.54 512.317504 380.5 485.437504C374.478048 464.20224 362.088128 445.845792 345.375008 432.437504C224.68472 457.3888 160 504.637216 160 528C160 530.0319999999999 160.4781632 532.256864 161.4375008 534.624992C171.2304064 558.798848 232.0212768 598.422592 336.624992 621.5624992zM687.375008 621.5624992C802.225952 596.1557504 864 550.774656 864 528C864 504.633216 799.292864 457.385312 678.562496 432.437504C661.86832 445.836864 649.517472 463.901312 643.5 485.437504C636.46 512.317504 639.990016 540.132512 653.750016 563.812512L687.375008 621.5624992zM512 480C553.92 480 588.777504 455.06 600.937504 420.5C613.024032 421.598784 624.525984 422.992128 635.812512 424.562496C598.750144 419.248672 557.569664 416 512 416C466.430336 416 425.249856 419.248672 388.187488 424.562496C399.474016 422.992128 410.975968 421.598784 423.062496 420.5C435.222496 455.06 470.08 480 512 480zM160 434.5C233.6166016 384.99392 363.53824 352 512 352C660.46176 352 790.383392 384.99392 864 434.5L864 240C864 207.4880000000001 740.64 128 512 128C283.36 128 160 207.4880000000001 160 240L160 434.5zM355.624992 430.062496C360.922336 429.036608 366.3289920000001 428.09424 371.8125120000001 427.187488C366.27984 428.10688 360.94896 429.050784 355.624992 430.062496zM668.375008 430.062496C663.05104 429.050784 657.72016 428.10688 652.187488 427.187488C657.671008 428.09424 663.077664 429.036608 668.375008 430.062496z"/>
    <glyph glyph-name="copy" unicode="" horiz-adv-x="1024" d="M128 768L128 128L352 128L352 192L192 192L192 704L576 704L576 672L640 672L640 768zM384 640L384 0L896 0L896 640zM448 576L832 576L832 64L448 64z"/>
    <glyph glyph-name="rss" unicode="" horiz-adv-x="1024" d="M160 736L160 608C477.76 608 736 349.76 736 32L864 32C864 420.8 548.8 736 160 736zM160 512L160 384C354.24 384 512 226.24 512 32L640 32C640 296.9600000000001 424.96 512 160 512zM256 224A96 96 0 0 1 256 32A96 96 0 0 1 256 224z"/>
    <glyph glyph-name="bars" unicode="" horiz-adv-x="1024" d="M128 672L128 608L896 608L896 672zM128 416L128 352L896 352L896 416zM128 160L128 96L896 96L896 160z"/>
    <glyph glyph-name="list-ol" unicode="" horiz-adv-x="1024" d="M191 800L181 789C181 789 156.750016 768 141 768L141 704C162.750016 704 177.750016 712.875008 192 721L192 576L256 576L256 800zM352 704L352 640L896 640L896 704zM208 512C163.750016 512 128 476.249984 128 432L128 416L192 416L192 432C192 438.875008 201.124992 448 208 448C214.875008 448 224 438.875008 224 432L221 429L138 349L128 340L128 288L288 288L288 352L233 352L261 380L265 383L264 384C280 397.124992 288 416.624992 288 432C288 476.249984 252.250016 512 208 512zM352 416L352 352L896 352L896 416zM128 224L128 160L172 160L164 147L160 140L160 96L208 96C214.875008 96 224 86.875008 224 80C224 73.124992 214.875008 64 208 64L128 64L128 0L208 0C252.250016 0 288 35.749984 288 80C288 112.124992 266.250016 134.2499840000001 239 147L252 169L256 177L256 224zM352 128L352 64L896 64L896 128z"/>
    <glyph glyph-name="chair" unicode="" horiz-adv-x="1024" d="M352 768L352 370C348.750016 369.124992 344.875008 367.875008 342 367C326.5 362.2499840000001 315.750016 357.2499840000001 308 352C304.124992 349.375008 300.5 346.624992 298 344C295.5 341.375008 292 336 292 336L288 329L288 256L320 256L320 0L384 0L384 256L640 256L640 0L704 0L704 256L736 256L736 329L732 336C732 336 728.5 341.375008 726 344C723.5 346.624992 719.875008 349.375008 716 352C708.250016 357.2499840000001 697.5 362.2499840000001 682 367C679.124992 367.875008 675.250016 369.124992 672 370L672 768L608 768L608 736L416 736L416 768zM416 672L480 672L480 383C455.750016 382.375008 434 381.7499840000001 416 380zM544 672L608 672L608 380C590 381.7499840000001 568.250016 382.375008 544 383z"/>
    <glyph glyph-name="dot-circle" unicode="" horiz-adv-x="1024" d="M512 768C300.250016 768 128 595.749984 128 384C128 172.2499840000001 300.250016 0 512 0C723.750016 0 896 172.2499840000001 896 384C896 595.749984 723.750016 768 512 768zM512 704C689.124992 704 832 561.124992 832 384C832 206.875008 689.124992 64 512 64C334.875008 64 192 206.875008 192 384C192 561.124992 334.875008 704 512 704zM512 480C459 480 416 437 416 384C416 331 459 288 512 288C565 288 608 331 608 384C608 437 565 480 512 480z"/>
    <glyph glyph-name="grinning-face-with-big-eyes" unicode="" horiz-adv-x="1024" d="M512 800C282.624 800 96 613.376 96 384C96 154.624 282.624 -32 512 -32C741.376 -32 928 154.624 928 384C928 613.376 741.376 800 512 800zM512 736C706.08 736 864 578.0799999999999 864 384C864 189.92 706.08 32 512 32C317.92 32 160 189.92 160 384C160 578.0799999999999 317.92 736 512 736zM368 512A48 48 0 0 1 368 416A48 48 0 0 1 368 512zM656 512A48 48 0 0 1 656 416A48 48 0 0 1 656 512zM288 288C288 288 339.36 128 512 128C684.64 128 736 288 736 288L288 288z"/>
    <glyph glyph-name="dna" unicode="" horiz-adv-x="1024" d="M192 736C192 639.249984 233 564 291 505C337 458.124992 392.875008 419.624992 450 384C316.624992 299.7499840000001 192 207.624992 192 32L256 32C256 182.2499840000001 377 264.2499840000001 511 347C542.875008 327.375008 574 308.2499840000001 603 288L486 288C454 268.7499840000001 425.750016 246.375008 397 224L682 224C683.624992 222.375008 685.375008 220.624992 687 219C705.250016 200.5 721.375008 180.875008 734 160L339 160C323 140.7499840000001 313.624992 118.375008 304 96L760 96C765 76.249984 768 55.249984 768 32L832 32C832 128.7499840000001 791 204 733 263C675 322 601 367 529 411C457 455 387 498 337 549C287 600 256 656.749984 256 736zM768 736C768 713 764.250016 691.875008 759 672L304 672C313.624992 649.624992 323 627.249984 339 608L732 608C718 584.875008 700.250016 563.875008 680 544L397 544C425.750016 521.624992 454 499.249984 486 480L604 480C584.750016 466 564.5 451.875008 544 438C563.250016 425.249984 582.750016 415.749984 602 403C723.624992 483 832 576 832 736z"/>
    <glyph glyph-name="plane-arrival" unicode="" horiz-adv-x="1024" d="M109 769L107 728L96 447L95 422L119 415L324 353L150 232L101 198L156 176L247 140L259 135L271 140L591 273L796 211C850 194.7499840000001 907.750016 226.124992 924 280C940.250016 334 908.875008 391.749984 855 408L673 464L552 664L545 675L533 679L448 702L401 714L408 666L425 541L289 583L237 717L231 732L216 737L148 757zM169 684L183 680L234 546L239 531L254 527L836 347C856.875008 340.7499840000001 868.250016 319.7499840000001 862 299C855.750016 278.124992 834.750016 266.7499840000001 814 273L598 338L587 341L577 337L259 204L235 214L415 338L470 376L406 395L161 469zM477 627L503 620L581 493L491 520zM656 224C629.5 224 608 202.5 608 176C608 149.5 629.5 128 656 128C682.5 128 704 149.5 704 176C704 202.5 682.5 224 656 224zM96 64L96 0L928 0L928 64z"/>
    <glyph glyph-name="save" unicode="" horiz-adv-x="1024" d="M160 736L160 32L864 32L864 589L855 599L727 727L717 736zM224 672L320 672L320 480L704 480L704 658L800 562L800 96L736 96L736 384L288 384L288 96L224 96zM384 672L512 672L512 608L576 608L576 672L640 672L640 544L384 544zM352 320L672 320L672 96L352 96z"/>
    <glyph glyph-name="binoculars" unicode="" horiz-adv-x="1024" d="M352 736C289 736 238.750016 689.875008 228 630C167.5 614.749984 115 575.375008 92 513L91 513L23 322C8.5 292.375008 0 259.124992 0 224C0 100.624992 100.624992 0 224 0C335.124992 0 427.750016 81.624992 445 188C462.375008 170.875008 486 160 512 160C538 160 561.624992 170.875008 579 188C596.250016 81.624992 688.875008 0 800 0C923.375008 0 1024 100.624992 1024 224C1024 255.124992 1017.624992 285 1006 312L933 516L932 517L932 518C908.624992 574.749984 856.875008 614.375008 796 630C785.250016 689.875008 735 736 672 736C612.624992 736 564.375008 694.875008 550 640L474 640C459.624992 694.875008 411.375008 736 352 736zM352 672C390.124992 672 416 646.124992 416 608L416 576L608 576L608 608C608 646.124992 633.875008 672 672 672C710.124992 672 736 646.124992 736 608L736 579L765 576C812.5 571 853.5 537.875008 872 495C872.250016 494.375008 872.750016 493.624992 873 493L897 425C867.624992 439.249984 834.750016 448 800 448C706.375008 448 626.375008 389.875008 593 308C575.875008 334.624992 545.624992 352 512 352C478.375008 352 448.124992 334.624992 431 308C397.624992 389.875008 317.624992 448 224 448C189.750016 448 157.124992 439.875008 128 426L152 491L152 492C170.624992 541.5 209.875008 570.875008 259 576L288 579L288 608C288 646.124992 313.875008 672 352 672zM224 384C312.750016 384 384 312.7499840000001 384 224C384 135.2499840000001 312.750016 64 224 64C135.250016 64 64 135.2499840000001 64 224C64 246.624992 69.624992 267.5 78 287C78.5 288.2499840000001 78.5 289.7499840000001 79 291C104.250016 345.875008 159.375008 384 224 384zM800 384C888.750016 384 960 312.7499840000001 960 224C960 135.2499840000001 888.750016 64 800 64C711.250016 64 640 135.2499840000001 640 224C640 312.7499840000001 711.250016 384 800 384zM512 288C530 288 544 274 544 256C544 238 530 224 512 224C494 224 480 238 480 256C480 274 494 288 512 288z"/>
    <glyph glyph-name="language" unicode="" horiz-adv-x="1024" d="M128 768L128 192L320 192L320 0L896 0L896 576L704 576L704 768zM192 704L640 704L640 558L338 256L192 256zM352 640L352 608L256 608L256 544L414 544C409.875008 507.249984 398.624992 478.249984 380 458C369 461.624992 359.124992 466.124992 351 471C328.5 484.375008 320 498.624992 320 512L256 512C256 473.875008 279.5 442.124992 311 421C295.250016 417.624992 277 416 256 416L256 352C312.750016 352 360 365 396 389C412.750016 386.124992 429.750016 384 448 384L448 444C465.375008 473.124992 474.624992 507.124992 478 544L512 544L512 608L416 608L416 640zM686 512L832 512L832 64L384 64L384 210zM640 453L610 362L546 170L544 165L544 128L608 128L608 156L609 160L671 160L672 156L672 128L736 128L736 165L734 170L670 362zM640 252L649 224L631 224z"/>
    <glyph glyph-name="italic" unicode="" horiz-adv-x="1024" d="M376 736L374 706L368 610L366 576L430 576L402 192L338 192L336 162L330 66L327 32L648 32L650 62L656 158L658 192L594 192L622 576L686 576L688 606L694 702L697 736zM436 672L628 672L626 640L562 640L560 610L528 162L526 128L590 128L588 96L396 96L398 128L462 128L464 158L496 606L498 640L434 640z"/>
    <glyph glyph-name="arrow-down" unicode="" horiz-adv-x="1024" d="M480 768L480 126L263 343L217 297L489 25L512 3L535 25L807 297L761 343L544 126L544 768z"/>
    <glyph glyph-name="kaaba" unicode="" horiz-adv-x="1024" d="M512 736C505.152 736 498.310016 734.8955008 491.750016 732.6875008L160.8124992 622.3750016C141.1964992 615.8470016 128 597.5470015999999 128 576.8750016L128 163.5C128 141.484 142.9990016 122.2815040000001 164.3750016 116.937504L496.5 33.937504C501.588 32.657504 506.784 32 512 32C517.216 32 522.412 32.657504 527.5 33.937504L859.624992 116.937504C881.000992 122.249504 896 141.452 896 163.5L896 576.8750016C896 597.5470015999999 882.803488 615.8470016 863.187488 622.3750016L532.249984 732.6875008C525.689984 734.8955008 518.848 736 512 736zM512 672L832 565.375008L832 483.937504L537.624992 572.187488C520.824992 577.2435008 503.175008 577.2435008 486.375008 572.187488L192 483.937504L192 565.375008L512 672zM512 523.750016C517.164 523.750016 522.365504 523.034496 527.437504 521.562496L832 430.124992L832 176L512 96L192 176L192 430.124992L496.812512 521.562496C501.740512 523.034496 506.836 523.750016 512 523.750016zM487.062496 479.812512C485.750016 480.082496 484.337504 480.079488 482.937504 479.687488L376.3125120000001 450.624992C372.568512 449.536992 369.875008 446.062496 369.875008 442.062496L369.875008 423.437504C369.875008 417.549504 375.462496 413.531008 381.062496 414.875008L487.750016 443.937504C491.494016 444.993504 494.124992 448.750016 494.124992 452.750016L494.124992 471.124992C494.124992 475.516992 491 479.002496 487.062496 479.812512zM537 479.812512C533.062496 479.007008 529.875008 475.516992 529.875008 471.124992L529.875008 452.687488C529.875008 448.431488 532.568512 444.931008 536.312512 443.875008L642.937504 414.875008C648.537504 413.275008 654.124992 417.519008 654.124992 423.375008L654.124992 442.062496C654.124992 446.062496 651.461984 449.5064960000001 647.750016 450.562496L541.062496 479.624992C539.662496 480.024992 538.312512 480.080992 537 479.812512zM327.062496 436.124992C325.750016 436.393504 324.337504 436.337504 322.937504 435.937504L234.1249984 411.687488C230.1249984 410.599488 227.5 407.124992 227.5 403.124992L227.5 384.750016C227.5 378.8620160000001 233.0875008 374.587488 238.6875008 376.1874880000001L327.750016 400.437504C331.494016 401.525504 334.124992 405 334.124992 409L334.124992 427.375008C334.124992 431.767008 331 435.319488 327.062496 436.124992zM697 436.124992C693.062496 435.319488 689.875008 431.767008 689.875008 427.375008L689.875008 409C689.875008 405 692.568512 401.493504 696.312512 400.437504L785.375008 376.1874880000001C790.975008 374.587488 796.562496 378.894016 796.562496 384.750016L796.562496 403.124992C796.562496 407.124992 793.843008 410.599488 789.875008 411.687488L701.062496 435.937504C699.662496 436.337504 698.312512 436.393504 697 436.124992z"/>
    <glyph glyph-name="taxi" unicode="" horiz-adv-x="1024" d="M416 768L395 704L304 704C261.750016 704 224.124992 676.5 212 636L168 489L106 510L86 450L149 429L129 361C128.250016 358.124992 127.875008 355 128 352L128 128C128 127 128 126 128 125L128 96C128 78.375008 142.375008 64 160 64L256 64L267 96L757 96L768 64L864 64C881.624992 64 896 78.375008 896 96L896 123C896.124992 124.624992 896.124992 126.375008 896 128L896 352C896.124992 355 895.750016 358.124992 895 361L875 429L938 450L918 510L856 489L812 636C799.875008 676.5 762.250016 704 720 704L629 704L608 768zM304 640L720 640C734.250016 640 746.875008 630.624992 751 617L792 480L232 480L273 617C277.124992 630.749984 289.750016 640 304 640zM213 416L811 416L832 346L832 160L192 160L192 346zM272 384C245.5 384 224 362.5 224 336C224 309.5 245.5 288 272 288C298.5 288 320 309.5 320 336C320 362.5 298.5 384 272 384zM752 384C725.5 384 704 362.5 704 336C704 309.5 725.5 288 752 288C778.5 288 800 309.5 800 336C800 362.5 778.5 384 752 384zM384 288L344 192L413 192L427 224L597 224L611 192L680 192L640 288z"/>
    <glyph glyph-name="face-with-tears-of-joy" unicode="" horiz-adv-x="1024" d="M512 800C283.84 800 98.1395008 615.3064992 96.1875008 387.562496C114.5555008 394.922496 136.2884992 402.327488 161.3124992 409.687488C174.5284992 591.7995008 326.56 736 512 736C697.44 736 849.471488 591.7995008 862.687488 409.687488C887.711488 402.327488 909.444512 394.922496 927.812512 387.562496C925.860512 615.3064992 740.16 800 512 800zM288 448L288 384L448 384L448 448L288 448zM576 448L576 384L736 384L736 448L576 448zM192 352C192 352 96.9729984 325.285504 78.1249984 306.437504C59.2770016 287.5895040000001 59.2770016 256.972992 78.1249984 238.124992C96.9729984 219.276992 127.5895008 219.276992 146.4375008 238.124992C165.2855008 256.972992 192 352 192 352zM832 352C832 352 858.714496 256.972992 877.562496 238.124992C896.410496 219.276992 927.027008 219.276992 945.875008 238.124992C964.723008 256.972992 964.723008 287.5895040000001 945.875008 306.437504C927.027008 325.285504 832 352 832 352zM288 288C288 288 339.52 128 512 128C684.48 128 736 288 736 288L288 288zM205.6875008 211.187488C201.0155008 203.731488 196.2955008 197.4830080000001 191.6875008 192.875008C181.4155008 182.6030080000001 169.46 174.692992 156.5 169.124992C229.492 48.804992 361.312 -32 512 -32C662.688 -32 794.508 48.804992 867.5 169.124992C854.54 174.692992 842.584512 182.571008 832.312512 192.875008C827.672512 197.515008 822.984512 203.7634880000001 818.312512 211.187488C757.800512 104.371488 643.296 32 512 32C380.704 32 266.1995008 104.371488 205.6875008 211.187488z"/>
    <glyph glyph-name="arrow-left" unicode="" horiz-adv-x="1024" d="M425 679L153 407L131 384L153 361L425 89L471 135L254 352L896 352L896 416L254 416L471 633z"/>
    <glyph glyph-name="star-half" unicode="" horiz-adv-x="1024" d="M512 827.749984L378.750016 528.875008L53.250016 494.5L296.375008 275.375008L228.5 -44.750016L512 118.7499840000001z"/>
    <glyph glyph-name="restroom" unicode="" horiz-adv-x="1024" d="M288 768C217.624992 768 160 710.375008 160 640C160 604.375008 175.250016 572.249984 199 549C156.375008 520.124992 128 470.875008 128 416L128 236L192 204L192 0L384 0L384 204L448 236L448 416C448 470.875008 419.624992 520.124992 377 549C400.750016 572.249984 416 604.375008 416 640C416 710.375008 358.375008 768 288 768zM704 768C633.624992 768 576 710.375008 576 640C576 603.124992 592.750016 570.375008 618 547C589 525.249984 567.875008 492.875008 561 454C561 453.624992 561 453.375008 561 453L513 198L505 160L608 160L608 0L800 0L800 160L903 160L895 198L847 453C847 453.375008 847 453.624992 847 454C840.124992 492.875008 819 525.249984 790 547C815.250016 570.375008 832 603.124992 832 640C832 710.375008 774.375008 768 704 768zM288 704C323.750016 704 352 675.749984 352 640C352 604.249984 323.750016 576 288 576C252.250016 576 224 604.249984 224 640C224 675.749984 252.250016 704 288 704zM704 704C739.750016 704 768 675.749984 768 640C768 604.249984 739.750016 576 704 576C668.250016 576 640 604.249984 640 640C640 675.749984 668.250016 704 704 704zM288 512C341 512 384 469 384 416L384 276L320 244L320 64L256 64L256 244L192 276L192 416C192 469 235 512 288 512zM704 512C743.375008 512 776.875008 485.875008 784 443L784 442L785 442L826 224L736 224L736 64L672 64L672 224L582 224L623 442L624 442L624 443C631.124992 485.875008 664.624992 512 704 512z"/>
    <glyph glyph-name="leaf" unicode="" horiz-adv-x="1024" d="M801 768L768 753C666.250016 708.124992 519.250016 691.249984 394 647C331.375008 624.875008 273.375008 595.375008 230 548C186.624992 500.624992 160 435.375008 160 352C160 265.7499840000001 210.750016 206.624992 258 173C278.124992 158.624992 297.624992 148.2499840000001 314 141C294.250016 104.375008 279.624992 71.375008 270 43C252.5 -8.124992 249.750016 -48.124992 251 -77C252.250016 -105.875008 256 -125.624992 256 -125L320 -131C322 -107.875008 316 -95.750016 315 -74C314 -52.250016 315.875008 -22.375008 331 22C361.250016 110.624992 445.124992 256.5 663 490L617 534C486.375008 394 402 284.875008 347 197C333 202.624992 314.250016 211.2499840000001 295 225C257.875008 251.375008 224 290 224 352C224 422.5 244.124992 469 277 505C309.875008 541 357.750016 566.749984 415 587C518.624992 623.624992 646.875008 642.124992 757 683C767.250016 644.124992 800 511 800 303C800 185 772.375008 117.375008 740 80C707.624992 42.624992 668.624992 32 634 32C599.5 32 562.250016 49.624992 530 72C497.750016 94.375008 475.5 117.7499840000001 453 132L419 78C424.750016 74.375008 456.624992 44.875008 494 19C531.375008 -6.875008 578.750016 -32 634 -32C683.250016 -32 743.5 -14.624992 789 38C834.5 90.624992 864 175.124992 864 303C864 553.249984 811 733 811 733z"/>
    <glyph glyph-name="subway" unicode="" horiz-adv-x="1024" d="M320 768C232 768 160 696 160 608L160 224C160 146.375008 206.375008 79.249984 273 49L192 -32L267 -32L332 33C338.375008 32.375008 345.375008 32 352 32L672 32C678.624992 32 685.624992 32.375008 692 33L757 -32L832 -32L751 49C817.624992 79.249984 864 146.375008 864 224L864 608C864 696 792 768 704 768zM320 704L704 704C746.250016 704 782 677.5 795 640L229 640C242 677.5 277.750016 704 320 704zM224 576L480 576L480 384L224 384zM544 576L800 576L800 384L544 384zM224 320L800 320L800 224C800 153 743 96 672 96L352 96C281 96 224 153 224 224zM336 256C309.5 256 288 234.5 288 208C288 181.5 309.5 160 336 160C362.5 160 384 181.5 384 208C384 234.5 362.5 256 336 256zM688 256C661.5 256 640 234.5 640 208C640 181.5 661.5 160 688 160C714.5 160 736 181.5 736 208C736 234.5 714.5 256 688 256z"/>
    <glyph glyph-name="cowboy-hat" unicode="" horiz-adv-x="1024" d="M448 704C419.250016 704 398 688 379 667C360.124992 646.249984 344.750016 618 337 584C336.875008 583.624992 337.124992 583.375008 337 583C328.624992 551 316.750016 495.749984 307 448C284.624992 467.375008 256 480 224 480C153.250016 480 96 422.749984 96 352C96 284.624992 113.375008 208.7499840000001 177 153C240.624992 97.249984 344.5 64 512 64C679.624992 64 784.5 97.875008 848 154C911.5 210.124992 928 286.124992 928 352C928 422.749984 870.750016 480 800 480C768.250016 480 739.375008 468.124992 717 449C716.624992 449.375008 716.375008 449.624992 716 450C716 450.124992 715 449.875008 715 450C703.624992 502.749984 694.5 547.124992 687 583C679.375008 619 663.250016 648.124992 644 669C624.750016 689.875008 603.5 704 576 704C549.875008 704 532.750016 690.624992 521 682C516.875008 679 514.624992 676.875008 512 675C509.375008 676.875008 507.124992 679 503 682C491.250016 690.624992 474.124992 704 448 704zM448 640C447.5 640 455.124992 637.375008 465 630C470 626.375008 475.124992 622.375008 482 618C488.875008 613.624992 497.375008 608 512 608C526.624992 608 535.124992 613.624992 542 618C548.875008 622.375008 554 626.375008 559 630C568.875008 637.375008 576.5 640 576 640C574.124992 640 585.875008 637 597 625C608.124992 613 619.750016 593.749984 625 569C633.875008 527 646.750016 467.249984 658 415C656.375008 413.875008 655 413.124992 653 412C631.375008 399.375008 589.375008 384 512 384C434.624992 384 392.624992 399.375008 371 412C368.5 413.375008 367 414.624992 365 416C376 469.124992 389.750016 533 399 568C399 568.375008 399 568.624992 399 569C404.124992 592.124992 415.624992 611.375008 427 624C438.375008 636.624992 451.250016 640 448 640zM224 416C261.124992 416 286.624992 391.375008 288 355C288 354.624992 288 354.375008 288 354C286.624992 348 287 341.7499840000001 289 336C289.250016 335 289.624992 334 290 333C296.250016 270.624992 331.375008 228.875008 374 211C420.875008 191.2499840000001 472 192 512 192C552.875008 192 604.624992 192.5 651 213C694.124992 232.124992 730.124992 275.2499840000001 735 338C736.375008 342.5 736.750016 347.375008 736 352C736 352.375008 736 352.624992 736 353C736.124992 354.375008 736.124992 355.624992 736 357C738.124992 392.375008 763.624992 416 800 416C838.124992 416 864 390.124992 864 352C864 296.2499840000001 851.875008 243.375008 805 202C758.124992 160.624992 670.750016 128 512 128C353.124992 128 265.750016 160 219 201C172.250016 242 160 294.5 160 352C160 390.124992 185.875008 416 224 416zM352 350C385.875008 333.5 435.750016 320 512 320C588.250016 320 638.124992 333.5 672 350C671.5 300.624992 654.124992 284.875008 625 272C595.375008 258.875008 551.124992 256 512 256C472 256 427.124992 256.7499840000001 398 269C369.250016 281.124992 352.375008 297 352 350z"/>
    <glyph glyph-name="grip-vertical" unicode="" horiz-adv-x="1024" d="M224 832L224 576L480 576L480 832L224 832zM544 832L544 576L800 576L800 832L544 832zM288 768L416 768L416 640L288 640L288 768zM608 768L736 768L736 640L608 640L608 768zM224 512L224 256L480 256L480 512L224 512zM544 512L544 256L800 256L800 512L544 512zM288 448L416 448L416 320L288 320L288 448zM608 448L736 448L736 320L608 320L608 448zM224 192L224 -64L480 -64L480 192L224 192zM544 192L544 -64L800 -64L800 192L544 192zM288 128L416 128L416 0L288 0L288 128zM608 128L736 128L736 0L608 0L608 128z"/>
    <glyph glyph-name="plane" unicode="" horiz-adv-x="1024" d="M512 800C459.375008 800 416 756.624992 416 704L416 469L147 349L128 341L128 188L416 220L416 161L334 106L320 97L320 -39L358 -31L512 0L666 -31L704 -39L704 97L690 106L608 161L608 220L896 188L896 341L877 349L608 469L608 704C608 756.624992 564.624992 800 512 800zM512 736C530.124992 736 544 722.124992 544 704L544 427L563 419L832 299L832 260L544 292L544 126L558 117L640 62L640 39L518 63L512 65L506 63L384 39L384 62L466 117L480 126L480 292L192 260L192 299L461 419L480 427L480 704C480 722.124992 493.875008 736 512 736z"/>
    <glyph glyph-name="tablets" unicode="" horiz-adv-x="1024" d="M704 800C580.48 800 480 699.488 480 576C480 452.512 580.48 352 704 352C827.52 352 928 452.512 928 576C928 699.488 827.52 800 704 800zM704 736C792.224 736 864 664.2239999999999 864 576C864 543.444608 854.07952 513.233472 837.312512 487.937504L615.937504 709.3124992C641.233472 726.0795072 671.444608 736 704 736zM570.687488 664.0624992L792.062496 442.624992C766.77152 425.868096 736.544704 416 704 416C615.776 416 544 487.776 544 576C544 608.5553856 553.92048 638.7665216 570.687488 664.0624992zM320 448C196.48 448 96 347.4880000000001 96 224C96 100.5119999999999 196.48 0 320 0C443.52 0 544 100.5119999999999 544 224C544 347.4880000000001 443.52 448 320 448zM320 384C397.259616 384 461.875072 328.931072 476.750016 256L163.25 256C178.124928 328.931072 242.7403744 384 320 384zM163.25 192L476.750016 192C461.875072 119.068928 397.259616 64 320 64C242.7403744 64 178.124928 119.068928 163.25 192z"/>
    <glyph glyph-name="egg" unicode="" horiz-adv-x="1024" d="M512 800C416 800 329.6 726.4 265.6 633.6C201.6 540.8 160 425.6 160 320C160 208 198.4 118.4 262.4 57.6C329.6 0 416 -32 512 -32C608 -32 694.4 -3.2 761.6 57.6S864 208 864 320C864 425.6 822.4 540.8 758.4 633.6C694.4 726.4 608 800 512 800zM512 736C572.8 736 646.4 681.6 704 598.4C761.6 515.2 800 406.4 800 320C800 220.8 768 150.4 716.8 105.6C665.6 57.6 595.2 32 512 32C428.8 32 358.4 57.6 307.2 105.6C256 153.6 224 224 224 320C224 409.6 262.4 515.2 320 598.4C377.6 681.6 451.2 736 512 736z"/>
    <glyph glyph-name="stopwatch" unicode="" horiz-adv-x="1024" d="M416 768L416 704L608 704L608 768zM512 672C318 672 160 514 160 320C160 126 318 -32 512 -32C706 -32 864 126 864 320C864 413.375008 827.624992 498.875008 768 562L823 617L777 663L719 605C661 647.249984 589.124992 672 512 672zM512 608C671.375008 608 800 479.375008 800 320C800 160.624992 671.375008 32 512 32C352.624992 32 224 160.624992 224 320C224 479.375008 352.624992 608 512 608zM480 544L480 375C460.875008 363.875008 448 343.624992 448 320C448 296.375008 460.875008 276.124992 480 265L480 224L544 224L544 265C563.124992 276.124992 576 296.375008 576 320C576 343.624992 563.124992 363.875008 544 375L544 544z"/>
    <glyph glyph-name="mouse-pointer" unicode="" horiz-adv-x="1024" d="M288 813L288 -5L341 39L470 147L535 18L549 -11L578 4L677 55L705 69L691 98L632 214L794 234L859 242L813 288L343 759zM352 658L722 289L578 272L533 266L554 225L620 97L578 75L509 213L490 249L459 223L352 133z"/>
    <glyph glyph-name="smiling-face" unicode="" horiz-adv-x="1024" d="M512 768C300.250016 768 128 595.749984 128 384C128 172.2499840000001 300.250016 0 512 0C723.750016 0 896 172.2499840000001 896 384C896 595.749984 723.750016 768 512 768zM512 704C689.124992 704 832 561.124992 832 384C832 206.875008 689.124992 64 512 64C334.875008 64 192 206.875008 192 384C192 561.124992 334.875008 704 512 704zM368 512C341.5 512 320 490.5 320 464C320 437.5 341.5 416 368 416C394.5 416 416 437.5 416 464C416 490.5 394.5 512 368 512zM656 512C629.5 512 608 490.5 608 464C608 437.5 629.5 416 656 416C682.5 416 704 437.5 704 464C704 490.5 682.5 512 656 512zM346 288L291 256C335.250016 179.624992 417.5 128 512 128C606.5 128 688.750016 179.624992 733 256L678 288C644.750016 230.624992 583.250016 192 512 192C440.750016 192 379.250016 230.624992 346 288z"/>
    <glyph glyph-name="grinning-face-with-smiling-eyes" unicode="" horiz-adv-x="1024" d="M512 800C282.624 800 96 613.376 96 384C96 154.624 282.624 -32 512 -32C741.376 -32 928 154.624 928 384C928 613.376 741.376 800 512 800zM512 736C706.08 736 864 578.0799999999999 864 384C864 189.92 706.08 32 512 32C317.92 32 160 189.92 160 384C160 578.0799999999999 317.92 736 512 736zM352 512C284.992 512 236.5 473.375008 236.5 473.375008L275.5 422.624992C275.5 422.624992 310.1744992 448 352.062496 448C393.950496 448 428.562496 422.624992 428.562496 422.624992L467.562496 473.375008C467.498496 473.375008 419.008 512 352 512zM672 512C604.992 512 556.5 473.375008 556.5 473.375008L595.5 422.624992C595.5 422.624992 630.174496 448 672.062496 448C713.950496 448 748.562496 422.624992 748.562496 422.624992L787.562496 473.375008C787.498496 473.375008 739.008 512 672 512zM288 288C288 288 339.36 128 512 128C684.64 128 736 288 736 288L288 288z"/>
    <glyph glyph-name="minus-circle" unicode="" horiz-adv-x="1024" d="M512 800C282.624992 800 96 613.375008 96 384C96 154.624992 282.624992 -32 512 -32C741.375008 -32 928 154.624992 928 384C928 613.375008 741.375008 800 512 800zM512 736C706.750016 736 864 578.749984 864 384C864 189.2499840000001 706.750016 32 512 32C317.250016 32 160 189.2499840000001 160 384C160 578.749984 317.250016 736 512 736zM320 416L320 352L704 352L704 416z"/>
    <glyph glyph-name="audio-file" unicode="" horiz-adv-x="1024" d="M192 800L192 -32L832 -32L832 800zM256 736L768 736L768 32L256 32zM512 585L512 378C501.875008 381.624992 491.250016 384 480 384C427.375008 384 384 340.624992 384 288C384 235.375008 427.375008 192 480 192C532.624992 192 576 235.375008 576 288L576 503L664 481L680 543zM480 320C498 320 512 306 512 288C512 270 498 256 480 256C462 256 448 270 448 288C448 306 462 320 480 320z"/>
    <glyph glyph-name="divide" unicode="" horiz-adv-x="1024" d="M512 704C459.375008 704 416 660.624992 416 608C416 555.375008 459.375008 512 512 512C564.624992 512 608 555.375008 608 608C608 660.624992 564.624992 704 512 704zM512 640C530 640 544 626 544 608C544 590 530 576 512 576C494 576 480 590 480 608C480 626 494 640 512 640zM160 416L160 352L864 352L864 416zM512 256C459.375008 256 416 212.624992 416 160C416 107.375008 459.375008 64 512 64C564.624992 64 608 107.375008 608 160C608 212.624992 564.624992 256 512 256zM512 192C530 192 544 178 544 160C544 142 530 128 512 128C494 128 480 142 480 160C480 178 494 192 512 192z"/>
    <glyph glyph-name="blind" unicode="" horiz-adv-x="1024" d="M464 800C402.5 800 352 749.5 352 688C352 626.5 402.5 576 464 576C525.5 576 576 626.5 576 688C576 749.5 525.5 800 464 800zM464 736C490.875008 736 512 714.875008 512 688C512 661.124992 490.875008 640 464 640C437.124992 640 416 661.124992 416 688C416 714.875008 437.124992 736 464 736zM346 568C329.5 566.624992 314.124992 558.749984 303 546L245 479C237.375008 470.249984 232 459.5 230 448L208 324L271 313L293 437L351 504L352 504L377 499L339 327C335.124992 309.124992 339.250016 290.7499840000001 350 276L527 32L606 32L402 314L440 487L455 484L479 400C484.624992 380.7499840000001 499.124992 365.124992 518 358L613 322L737 42L767 54L640 340L653 375L541 418L516 502C509.375008 525.124992 490.624992 542.5 467 547L363 567C357.5 568 351.5 568.5 346 568zM335 223L319 161L226 32L305 32L379 133L383 152z"/>
    <glyph glyph-name="hot-pepper" unicode="" horiz-adv-x="1024" d="M896 736L896 800C832.375008 800 782.750016 782.249984 748.624992 747.5C728.875008 727.375008 718.250016 705 712.124992 685.749984C695.875008 697 677 704 656 704C575.250016 704 544.750016 639.749984 544 596C544 589 543.750016 581.624992 543.250016 574C521.750016 510.375008 480 552.5 480 640C376.875008 530.5 488 490.124992 424.624992 426.749984C411.124992 413.249984 378.875008 408 358.750016 432.749984C332.124992 464.375008 386.250016 516.375008 335 555.249984C344.375008 496.749984 299.250016 508.875008 284 521.375008C264.124992 537.624992 228 573.375008 288 672C226.624992 644 189.624992 587.124992 192 544C198.375008 430.875008 373.250016 332.624992 302.624992 266.624992C267 233.2499840000001 197 278.375008 224 352C190.375008 334.875008 150.875008 294.124992 163.5 230.7499840000001C172.250016 186.875008 236 88 128 32C128 32 128.5 31.875008 129.375008 31.624992L126.624992 -32C128.750016 -32.124992 137.375008 -32.375008 151.250016 -32.375008C241.250016 -32.375008 552.750016 -18.5 744.5 165.124992C845 261.375008 896 388.875008 896 544C896 588.249984 875.875008 672 800 672C790.624992 672 781.875008 670.749984 773.624992 668.749984C777.250016 679.5 783.5 691.749984 794.250016 702.749984C816 724.749984 850.124992 736 896 736zM800 608C830.250016 608 832 544.5 832 544C832 407.124992 787.624992 295.2499840000001 700.375008 211.5C558.750016 75.749984 335.624992 42.124992 214.5 34.124992C244 40.875008 279.5 54.624992 318.375008 80.875008C505.624992 183.5 604.124992 425.5 607.750016 586.624992L608 586.624992L608 595.375008C608.124992 602.875008 611.124992 640 656 640C683.375008 640 704 601.124992 704 576L768 576C768 589.749984 771.375008 608 800 608z"/>
    <glyph glyph-name="volleyball-ball" unicode="" horiz-adv-x="1024" d="M512 800C283.375008 800 96 612.624992 96 384C96 155.375008 283.375008 -32 512 -32C740.624992 -32 928 155.375008 928 384C928 612.624992 740.624992 800 512 800zM512 736C587.375008 736 657.624992 711.749984 715 671C645.5 688.124992 580 690.875008 525 687C483.250016 684 447.250016 677.749984 420 671C411.250016 668.875008 405.624992 667 399 665C395.124992 686.749984 394 704.624992 394 715C431 728.249984 470.5 736 512 736zM332 685C333.750016 667.749984 337.375008 647.124992 343 624C342.875008 617.624992 344.624992 611.375008 348 606C358.5 568.875008 374.5 526.875008 400 483C400.624992 482 401.250016 481 402 480C421.624992 446.749984 445.875008 412.5 477 379C468.875008 351.375008 458.875008 325.875008 448 303C429.5 319.875008 406.124992 344.7499840000001 381 381C338.5 442.249984 298 530.5 296 649C296 652.749984 295.250016 656.5 294 660C305.750016 669.249984 319.124992 677.249984 332 685zM558 625C628 626.5 712.375008 615.624992 797 575C800.875008 572.375008 805.375008 570.749984 810 570C820.250016 553.749984 829.5 537 837 519C737.375008 563.624992 645 572.249984 572 567C513.624992 562.875008 470 550.124992 442 540C431 562 422.624992 583.249984 416 603C422.250016 604.875008 428 607 436 609C460 615 491.5 621.375008 529 624C538.375008 624.624992 548 624.749984 558 625zM235 600C245.875008 490.875008 285.875008 405.749984 328 345C360.875008 297.5 394.5 264.624992 416 246C401.5 224 385.875008 205.5 371 189C351.250016 208.624992 323.250016 239.875008 296 282C252.624992 349.124992 213.124992 441.749984 217 553C217.624992 558.875008 216.5 564.749984 214 570C220.5 580.249984 227.5 590.5 235 600zM606 504C675.624992 504.875008 761 491.124992 853 440C854.875008 438.749984 856.875008 437.749984 859 437C861.375008 421.249984 863.750016 405.249984 864 389C822.124992 407.749984 754.875008 430.249984 667 432C661 434.624992 654.375008 435.249984 648 434C646 433.5 643.875008 432.875008 642 432C641.375008 432 640.624992 432 640 432C605.5 431 568.124992 426 529 417C507.875008 439.124992 490.124992 461.624992 475 484C498.875008 491.5 533.624992 499.875008 577 503C586.250016 503.624992 596 503.875008 606 504zM164 435C179.750016 361.124992 210 297.624992 242 248C272.875008 200.124992 303.375008 166.124992 326 144C310.375008 130.7499840000001 297.250016 121.2499840000001 287 114C209.375008 178.624992 160 275.5 160 384C160 401.249984 161.624992 418.375008 164 435zM683 367C708.124992 365.624992 731.250016 363.2499840000001 752 359C751.250016 352.5 750.5 346.5 749 338C744.624992 313.7499840000001 736.750016 281.7499840000001 723 247C695.5 177.624992 645.5 97.375008 552 42C548.875008 39.875008 546.124992 37.124992 544 34C533.5 33 522.750016 32 512 32C496.750016 32 481.750016 33.124992 467 35C556.250016 98.124992 610.124992 175.375008 642 242C660.375008 280.375008 671.375008 315.2499840000001 678 343C680.250016 352.5 681.624992 359.5 683 367zM614 366C615.375008 366.124992 616.750016 365.875008 618 366C617.375008 363 616.750016 361.2499840000001 616 358C610.375008 334.2499840000001 600.124992 303.7499840000001 584 270C551.750016 202.624992 495 123.2499840000001 392 63C388.624992 61.5 385.624992 59.5 383 57C368.624992 62.749984 355.375008 69.5 342 77C352.375008 85 365 95.249984 378 107C386.624992 106.749984 395 110 401.250016 116C407.5 122 411 130.375008 411 139C434.5 164.124992 458.624992 194.375008 481 232C483.750016 235.2499840000001 485.750016 239 487 243C505.124992 275 521.124992 311.624992 534 353C562.124992 360 588.5 363.7499840000001 614 366zM814 341C833 334.124992 847.624992 327.375008 858 322C840.624992 225.2499840000001 784.250016 142.2499840000001 705 90C741.124992 133.875008 766.250016 180.624992 783 223C798.624992 262.375008 807 298.2499840000001 812 326C813.124992 332.124992 813.250016 335.875008 814 341z"/>
    <glyph glyph-name="chess-king" unicode="" horiz-adv-x="1024" d="M512 800C477 800 448 771 448 736C448 724.5 451.5 713.375008 457 704L256 704L256 628L263 620L380 480C362.375008 478.875008 348.875008 463.624992 350 446C351.124992 428.375008 366.375008 414.875008 384 416L405 416L355 238L353 233L332 192L288 192C287 192 286 192 285 192C267.375008 191.124992 253.624992 176.124992 254.5 158.5C255.375008 140.875008 270.375008 127.124992 288 128L230 51L224 43L224 -32L800 -32L800 43L794 51L736 128C747.5 127.875008 758.250016 133.875008 764.124992 143.875008C769.875008 153.875008 769.875008 166.124992 764.124992 176.124992C758.250016 186.124992 747.5 192.124992 736 192L692 192L671 233L670 235L669 238L619 416L640 416C657.624992 414.624992 673.124992 427.875008 674.5 445.5C675.875008 463.124992 662.624992 478.624992 645 480L761 620L768 628L768 704L567 704C572.5 713.375008 576 724.5 576 736C576 771 547 800 512 800zM330 640L694 640L561 480L463 480zM472 416L552 416L609 215L610 212L620 192L404 192L414 212L415 215zM368 128L656 128L728 32L296 32z"/>
    <glyph glyph-name="alternate-hospital" unicode="" horiz-adv-x="1024" d="M512 739L116 574L96 565L96 32L928 32L928 565L908 574zM512 669L864 522L864 96L160 96L160 522zM480 480L480 384L384 384L384 320L480 320L480 224L544 224L544 320L640 320L640 384L544 384L544 480z"/>
    <glyph glyph-name="battery-full" unicode="" horiz-adv-x="1024" d="M96 640L96 128L864 128L864 288L928 288L928 480L864 480L864 640zM160 576L800 576L800 192L160 192zM224 512L224 256L736 256L736 512z"/>
    <glyph glyph-name="window-maximize" unicode="" horiz-adv-x="1024" d="M160 736L160 32L864 32L864 736zM224 672L800 672L800 96L224 96zM288 576L288 192L736 192L736 576zM352 512L672 512L672 448L352 448zM352 384L672 384L672 256L352 256z"/>
    <glyph glyph-name="loudly-crying-face" unicode="" horiz-adv-x="1024" d="M512 768C300.250016 768 128 595.749984 128 384C128 172.2499840000001 300.250016 0 512 0C723.750016 0 896 172.2499840000001 896 384C896 595.749984 723.750016 768 512 768zM512 704C689.124992 704 832 561.124992 832 384C832 206.875008 689.124992 64 512 64C334.875008 64 192 206.875008 192 384C192 561.124992 334.875008 704 512 704zM384 576C344.375008 576 314.250016 553.875008 294 535C273.750016 516.124992 261 498 261 498L315 462C315 462 322.875008 475.875008 337 489C351.124992 502.124992 369.5 512 384 512L480 512L480 576zM544 576L544 512L640 512C654.5 512 672.875008 502.124992 687 489C701.124992 475.875008 709 462 709 462L763 498C763 498 750.250016 516.124992 730 535C709.750016 553.875008 679.624992 576 640 576zM272 448C272 448 224 362.5 224 336C224 309.5 245.5 288 272 288C298.5 288 320 309.5 320 336C320 362.5 272 448 272 448zM512 384C437.250016 384 386.124992 344.5 358 307C329.875008 269.5 321 232 321 232L311 192L713 192L703 232C703 232 694.124992 269.5 666 307C637.875008 344.5 586.750016 384 512 384zM512 320C565.5 320 594.124992 295.5 614 269C618.875008 262.375008 617.624992 262.124992 621 256L403 256C406.375008 262.124992 405.124992 262.375008 410 269C429.875008 295.5 458.5 320 512 320z"/>
    <glyph glyph-name="sticky-note" unicode="" horiz-adv-x="1024" d="M160 736L160 32L653 32L663 41L855 233L864 243L864 736zM224 672L800 672L800 288L608 288L608 96L224 96zM672 224L754 224L672 142z"/>
    <glyph glyph-name="alternate-transgender" unicode="" horiz-adv-x="1024" d="M128 768L128 544L192 544L192 659L290 560L233 503L279 457L336 514L378 472C361.124992 446.624992 352 416.5 352 384C352 307 407.250016 242 480 227L480 160L384 160L384 96L480 96L480 0L544 0L544 96L640 96L640 160L544 160L544 227C616.750016 242 672 307 672 384C672 416.5 662.875008 446.624992 646 472L832 659L832 544L896 544L896 768L672 768L672 704L787 704L600 518C574.624992 534.875008 544.5 544 512 544C479.5 544 449.375008 534.875008 424 518L382 560L439 617L393 663L336 606L237 704L352 704L352 768zM512 480C565.375008 480 608 437.375008 608 384C608 330.624992 565.375008 288 512 288C458.624992 288 416 330.624992 416 384C416 437.375008 458.624992 480 512 480z"/>
    <glyph glyph-name="volume-off" unicode="" horiz-adv-x="1024" d="M480 749L425 695L274 544L128 544L128 224L274 224L425 73L480 19zM416 594L416 174L311 279L301 288L192 288L192 480L301 480L311 489zM647 519L601 473L690 384L601 295L647 249L736 338L825 249L871 295L782 384L871 473L825 519L736 430z"/>
    <glyph glyph-name="user-graduate" unicode="" horiz-adv-x="1024" d="M512 800L96 672L195.375008 641.5L288 613L288 527.749984C284 522.875008 281 518.124992 278.624992 513.124992C272.875008 501 269.250016 487.5 266 471.5C259.875008 441.124992 256.624992 401.875008 256.250016 358.875008C236.750016 341.375008 224 316.2499840000001 224 288C224 247.124992 253 217.624992 289.124992 203.875008C303.624992 162.124992 327.750016 116.2499840000001 362.5 77.375008C400.5 35 451.250016 0 512 0C572.750016 0 623.5 35 661.5 77.375008C696.250016 116.2499840000001 720.375008 162.124992 734.875008 203.875008C771 217.624992 800 247.124992 800 288C800 316.2499840000001 787.375008 341.7499840000001 767.624992 359.375008C767.250016 402.249984 764 441.249984 758 471.5C754.750016 487.5 751.124992 501 745.375008 513.124992C743 518.124992 740 522.875008 736 527.749984L736 613L928 672zM512 733L710.5 672L512 611L313.5 672zM352 593.249984L512 544L521.5 546.875008L672 593.249984L672 519C671.624992 518.5 672 518.375008 670.5 517.375008C665.5 513.124992 655.124992 507 640.875008 501.249984C612.250016 489.875008 567.875008 480 512 480C456.124992 480 411.750016 489.875008 383.124992 501.249984C368.875008 507 358.5 513.124992 353.5 517.375008C352 518.375008 352.375008 518.5 352 519zM328.5 457.375008C337.750016 451.749984 347.750016 446.5 359.5 441.875008C397.124992 426.875008 448.750016 416 512 416C575.250016 416 626.875008 426.875008 664.5 441.875008C676.250016 446.5 686.250016 451.749984 695.5 457.375008C700.5 431.5 704 393.749984 704 352L704 324.875008L720 315.5C729.750016 310 736 300.124992 736 288C736 270.875008 723.250016 257.7499840000001 706.5 256.375008L685 254.624992L678.624992 234C668 199.375008 644.250016 154.124992 613.624992 120C583.124992 85.875008 547.5 64 512 64C476.5 64 440.875008 85.875008 410.375008 120C379.750016 154.124992 356 199.375008 345.375008 234L339 254.624992L317.5 256.375008C300.750016 257.7499840000001 288 270.875008 288 288C288 300 294.375008 309.875008 304.250016 315.5L320.624992 325L320 352L320 352.375008C320 393.875008 323.5 431.5 328.5 457.375008zM261.5 352L288.124992 352L261.250016 351.375008zM416 320C398.375008 320 384 305.624992 384 288C384 270.375008 398.375008 256 416 256C433.624992 256 448 270.375008 448 288C448 305.624992 433.624992 320 416 320zM608 320C590.375008 320 576 305.624992 576 288C576 270.375008 590.375008 256 608 256C625.624992 256 640 270.375008 640 288C640 305.624992 625.624992 320 608 320z"/>
    <glyph glyph-name="user-tie" unicode="" horiz-adv-x="1024" d="M512 768C388.624992 768 288 667.375008 288 544C288 467.875008 326.750016 400.5 385 360C253.624992 308.7499840000001 160 180.7499840000001 160 32L224 32C224 172.7499840000001 326.124992 290.375008 460 315L480 256L544 256L564 315C697.875008 290.375008 800 172.7499840000001 800 32L864 32C864 180.7499840000001 770.375008 308.7499840000001 639 360C697.250016 400.5 736 467.875008 736 544C736 667.375008 635.375008 768 512 768zM512 704C600.750016 704 672 632.749984 672 544C672 455.249984 600.750016 384 512 384C423.250016 384 352 455.249984 352 544C352 632.749984 423.250016 704 512 704zM480 224L448 32L576 32L544 224z"/>
    <glyph glyph-name="snowplow" unicode="" horiz-adv-x="1024" d="M336 704C293.250016 704 255.750016 675.124992 244 634L202 489L138 510L118 450L165 434L156 425C138 407 128 383.5 128 358L128 288L102 288L97 262L65 102L57 64L967 64L959 102L927 262L922 288L896 288L896 358C896 383.5 886 407 868 425L859 434L906 450L886 510L822 489L780 634C768.250016 675.124992 730.750016 704 688 704zM336 640L688 640C702.375008 640 714 630.875008 718 617L757 480L267 480L306 617C310 630.875008 321.624992 640 336 640zM238 416L786 416L823 380C829 374 832 366.5 832 358L832 288L768 288L768 352L640 352L640 288L384 288L384 352L256 352L256 288L192 288L192 358C192 366.5 195 374 201 380zM154 224L870 224L889 128L135 128z"/>
    <glyph glyph-name="alternate-share-square" unicode="" horiz-adv-x="1024" d="M160 736L160 32L864 32L864 736L160 736zM224 672L800 672L800 96L224 96L224 672zM640 576A64 64 0 0 1 576.249984 507L426.249984 432A64 64 0 0 1 384 448A64 64 0 0 1 384 320A64 64 0 0 1 426.249984 336L576.249984 261A64 64 0 0 1 640 192A64 64 0 0 1 640 320A64 64 0 0 1 597.750016 304L447.750016 379A64 64 0 0 1 447.750016 389L597.750016 464A64 64 0 0 1 640 448A64 64 0 0 1 640 576z"/>
    <glyph glyph-name="align-right" unicode="" horiz-adv-x="1024" d="M96 672L96 608L928 608L928 672zM352 544L352 480L928 480L928 544zM96 416L96 352L928 352L928 416zM352 288L352 224L928 224L928 288zM96 160L96 96L928 96L928 160z"/>
    <glyph glyph-name="thermometer-full" unicode="" horiz-adv-x="1024" d="M384 768L384 401C328 360.375008 288 298.375008 288 224C288 100.624992 388.624992 0 512 0C635.375008 0 736 100.624992 736 224C736 298.375008 696 360.375008 640 401L640 448L704 448L704 512L640 512L640 576L704 576L704 640L640 640L640 704L704 704L704 768zM448 704L576 704L576 371L592 362C639.875008 334.2499840000001 672 283.2499840000001 672 224C672 135.2499840000001 600.750016 64 512 64C423.250016 64 352 135.2499840000001 352 224C352 283.2499840000001 384.124992 334.2499840000001 432 362L448 371zM480 640L480 314C442.875008 300.7499840000001 416 265.624992 416 224C416 171 459 128 512 128C565 128 608 171 608 224C608 265.624992 581.124992 300.7499840000001 544 314L544 640z"/>
    <glyph glyph-name="medical-file" unicode="" horiz-adv-x="1024" d="M192 800L192 -32L832 -32L832 588.8124992L822.375008 598.3750016L630.375008 790.3750016L620.812512 800L192 800zM256 736L576 736L576 544L768 544L768 32L256 32L256 736zM640 691.1875008L723.187488 608L640 608L640 691.1875008zM480 448L480 352L384 352L384 288L480 288L480 192L544 192L544 288L640 288L640 352L544 352L544 448L480 448z"/>
    <glyph glyph-name="globe-with-europe-shown" unicode="" horiz-adv-x="1024" d="M512 800C282.624 800 96 613.376 96 384C96 154.624 282.624 -32 512 -32C741.376 -32 928 154.624 928 384C928 613.376 741.376 800 512 800zM512 736C579.296 736 642.026496 716.646 695.562496 683.75L688 665.6249984L725.624992 628L690.375008 592.8124992L640 640L576 640L512 560L544 489.624992L576 512L576 544L608 544L643.187488 515.187488L608 480L480 416L448 416L448 352L480 352L544 384L576 352L640 352L640 384L665.624992 422.375008L736 448L736 384L672 384L672 352L736 352L800 256L832 288L832 320L800 320L800 352L832 352L862.750016 358.624992C858.077984 293.280992 835.616 232.9379840000001 800 182.2499840000001L800 192L764.812512 192L688 320L608 288L512 320L416 288L384 192L416 128L480 128L512 160L544 128L544 33.624992C533.44 32.664992 522.816 32 512 32C317.92 32 160 189.92 160 384C160 413.664 164.1184992 442.323008 171.0624992 469.875008L188.8124992 480L224 480L224 585.75C229.344 593.3340000000001 234.7995008 600.864 240.6875008 608L269.4375008 608L283.4375008 651.1875008C303.5335008 668.4035008 325.508992 683.366 349.124992 695.75L320 608L384 608L448 672L448 704L416 704L384 672L384 711.5624992C423.7440000000001 727.1464992 466.816 736 512 736zM448 544L448 480L480 480L480 544L448 544z"/>
    <glyph glyph-name="box-open" unicode="" horiz-adv-x="1024" d="M512 768L352 640L672 640zM272 736L160 587L160 32L864 32L864 587L752 736L592 736L672 672L720 672L768 608L256 608L304 672L352 672L432 736zM224 544L800 544L800 96L224 96zM410 480C392.375008 478.375008 379.375008 462.624992 381 445C382.624992 427.375008 398.375008 414.375008 416 416L608 416C619.5 415.875008 630.250016 421.875008 636.124992 431.875008C641.875008 441.875008 641.875008 454.124992 636.124992 464.124992C630.250016 474.124992 619.5 480.124992 608 480L416 480C415 480 414 480 413 480C412 480 411 480 410 480z"/>
    <glyph glyph-name="swimmer" unicode="" horiz-adv-x="1024" d="M752 544C690.5 544 640 493.5 640 432C640 370.5 690.5 320 752 320C813.5 320 864 370.5 864 432C864 493.5 813.5 544 752 544zM439 543C427.375008 542.249984 416.124992 538.375008 406 531L237 410L275 358L443 479L516 395L279 194C292 192.875008 305.875008 192 320 192C341.624992 192 362.375008 194.2499840000001 383 198L557 347L622 272C645.624992 278.124992 669.875008 283.375008 695 286L491 521C477.375008 536.875008 458.375008 544.249984 439 543zM752 480C778.875008 480 800 458.875008 800 432C800 405 778.875008 384 752 384C725 384 704 405 704 432C704 458.875008 725 480 752 480zM736 256C658 256 589.624992 229.875008 523 206C456.375008 182.124992 391.5 160 320 160C144.124992 160 54 247 54 247L10 201C10 201 122.124992 96 320 96C404.624992 96 477 121.875008 544 146C611 170.124992 672.5 192 736 192C863 192 971 103 971 103L1013 153C1013 153 892 256 736 256z"/>
    <glyph glyph-name="digital-tachograph" unicode="" horiz-adv-x="1024" d="M128.5624992 672C92.8824992 672 64 643.1175008 64 607.4375008L64 160.562496C64 124.882496 92.8824992 96 128.5624992 96L863.437504 96C899.117504 96 928 124.882496 928 160.562496L928 607.4375008C928 643.1175008 899.117504 672 863.437504 672L128.5624992 672zM128 608L863.437504 608L864 608L864 160L128 160L128 608zM192 544L192 480L512 480L512 544L192 544zM192 416L192 352L256 352L256 416L192 416zM320 416L320 352L384 352L384 416L320 416zM448 416L448 352L512 352L512 416L448 416zM192 288L192 224L512 224L512 288L192 288zM576 288L576 224L800 224L800 288L576 288z"/>
    <glyph glyph-name="alternate-exchange" unicode="" horiz-adv-x="1024" d="M710 823L665 777L802 640L128 640L128 576L802 576L665 439L710 393L925 608zM314 375L99 160L314 -55L359 -9L222 128L896 128L896 192L222 192L359 329z"/>
    <glyph glyph-name="minus" unicode="" horiz-adv-x="1024" d="M160 416L160 352L864 352L864 416z"/>
    <glyph glyph-name="hashtag" unicode="" horiz-adv-x="1024" d="M352 736L352 544L160 544L160 480L352 480L352 288L160 288L160 224L352 224L352 32L416 32L416 224L608 224L608 32L672 32L672 224L864 224L864 288L672 288L672 480L864 480L864 544L672 544L672 736L608 736L608 544L416 544L416 736zM416 480L608 480L608 288L416 288z"/>
    <glyph glyph-name="ship" unicode="" horiz-adv-x="1024" d="M480 800L480 736L352 736L352 640L224 640L224 451L197 445L197 444C139.250016 431.5 110.624992 364.624992 141 314L192 228L192 69C166.124992 76.249984 148 89 148 89L108 39C108 39 157.375008 0 225 0C271.750016 0 301.5 15.5 320 27C338.624992 15.624992 369.875008 0 417 0C463.750016 0 493.5 15.5 512 27C530.624992 15.624992 561.875008 0 609 0C655.750016 0 685.5 15.5 704 27C722.624992 15.624992 753.875008 0 801 0C868.624992 0 916 39 916 39L876 89C876 89 858.624992 75.124992 832 68L832 228L883 314C913.375008 364.624992 884.750016 431.5 827 444L800 450L800 640L672 640L672 736L544 736L544 800zM416 672L608 672L608 576L736 576L736 464L519 511L512 512L505 511L288 464L288 576L416 576zM512 446L813 382C829.750016 378.375008 837.875008 361.624992 829 347L773 253L768 246L768 69C742.124992 76.249984 724 89 724 89L704 105L684 89C684 89 651.875008 64 609 64C566.124992 64 532 89 532 89L512 105L492 89C492 89 459.875008 64 417 64C374.124992 64 340 89 340 89L320 105L300 89C300 89 282.624992 75.124992 256 68L256 246L251 253L195 347C186.124992 361.7499840000001 194.250016 378.375008 211 382zM352 384C332.750016 384 320 361.624992 320 336C320 310.375008 332.750016 288 352 288C371.250016 288 384 310.375008 384 336C384 361.624992 371.250016 384 352 384zM672 384C652.750016 384 640 361.624992 640 336C640 310.375008 652.750016 288 672 288C691.250016 288 704 310.375008 704 336C704 361.624992 691.250016 384 672 384z"/>
    <glyph glyph-name="sort-alphabetical-up" unicode="" horiz-adv-x="1024" d="M262.0624992 736L255.0624992 714.8750016L192.9375008 544L192 544L192 542.062496L161.9375008 458.875008L160 454.062496L160 416L224 416L224 442.875008L237.1249984 480L338.875008 480L352 442.875008L352 416L416 416L416 454.062496L414.062496 458.875008L384 542.062496L384 544L383.062496 544L320.937504 714.8750016L313.9375008 736L262.0624992 736zM736 720L712.937504 697.9375008L576 560L621.124992 514.875008L704 598.0624992L704 0L768 0L768 598.0624992L850.875008 514.875008L896 560L759.062496 697.9375008L736 720zM288 618.8750016L314.8750016 544L261.1249984 544L288 618.8750016zM160 352L160 288L337.937504 288L168.9375008 119.062496L160 109.124992L160 32L416 32L416 96L238.0624992 96L407.062496 264.937504L416 274.875008L416 352L160 352z"/>
    <glyph glyph-name="bold" unicode="" horiz-adv-x="1024" d="M512 672C601.624992 672 672 601.624992 672 512C672 470.375008 656 435.249984 630.375008 406.375008C691.250016 384 736 326.375008 736 256C736 166.375008 665.624992 96 576 96L224 96L224 672L512 672M288 416L512 416C566.375008 416 608 457.624992 608 512C608 566.375008 566.375008 608 512 608L288 608L288 416M288 160L576 160C630.375008 160 672 201.624992 672 256C672 310.375008 630.375008 352 576 352L288 352L288 160M512 736L160 736L160 32L576 32C700.750016 32 800 131.2499840000001 800 256C800 323.2499840000001 768 387.249984 720 428.749984C729.624992 454.375008 736 483.249984 736 512C736 636.749984 636.750016 736 512 736zM352 544L512 544C531.250016 544 544 531.249984 544 512C544 492.749984 531.250016 480 512 480L352 480zM352 288L576 288C595.250016 288 608 275.2499840000001 608 256C608 236.7499840000001 595.250016 224 576 224L352 224z"/>
    <glyph glyph-name="poop" unicode="" horiz-adv-x="1024" d="M676 768L623 748C563.375008 725.5 524.624992 702.249984 499 678C473.375008 653.749984 461.250016 627.124992 455 607C448.750016 586.875008 446.250016 575.124992 442 569C438.250016 563.624992 431.750016 557.124992 411 551C410.624992 551.249984 408.124992 552.875008 408 553L407 553C391 563.5 372.750016 570 355 573C301.750016 582 246 558.749984 215 509L214 508C195 475.749984 184.624992 434.875008 190 392C191.624992 379 194.875008 365.7499840000001 200 353C153.124992 350.2499840000001 109.124992 323.875008 84 281L83 281C44 212.124992 67.750016 123.2499840000001 137 84L138 84L138 83C141.624992 81.249984 184.250016 58.749984 248 39C311.750016 19.249984 401 0 512 0C623 0 712.124992 18.5 776 38C839.124992 57.375008 874.624992 76.375008 887 84C887.124992 84.124992 887.875008 84.875008 888 85C956.250016 124.624992 979.250016 211.875008 940 279L941 279C922.624992 311.5 893.875008 333.624992 861 344C861 344.124992 860 343.875008 860 344C849.875008 380.5 825.875008 411.749984 793 430C797.375008 444 800 460.249984 800 480C800 517.124992 786.750016 548.375008 769 571C751.250016 593.624992 729.875008 608.749984 712 623C694.124992 637.249984 679.750016 650.375008 672 663C664.250016 675.624992 660.375008 687.624992 665 712zM604 666C607 652.624992 611.5 639.624992 618 629C633.124992 604.375008 653.375008 588.749984 672 574C690.624992 559.249984 708 545.124992 719 531C730 516.875008 736 503.375008 736 480C736 464.624992 734.250016 455.249984 732 448C644.750016 460.749984 568.375008 482.749984 512 504C500.750016 508.249984 490.875008 512.749984 481 517C486.375008 521.749984 491.124992 527.375008 495 533C509.375008 553.875008 511.375008 574.124992 516 589C520.624992 603.875008 525.875008 615.749984 543 632C553.250016 641.749984 581.750016 654.375008 604 666zM330 513C344.124992 513.124992 358.624992 508.749984 372 500C389.624992 487.749984 427.375008 468.5 490 445C553.250016 421.249984 637.875008 396 737 383L738 383C760.250016 380.2499840000001 778.624992 367.124992 790 348C778.624992 345.875008 766.875008 342.875008 756 338C754.375008 337.2499840000001 752.624992 337.7499840000001 751 337C749.750016 336.624992 749.5 336.2499840000001 749 336C748 335.5 747 335.5 746 335C745.124992 334.624992 744.124992 333.5 743 333C740.250016 331.7499840000001 736.250016 330.124992 731 328C720.624992 323.624992 705.124992 318 685 312C644.750016 300.124992 586.250016 288 512 288C456.875008 288 409.750016 294.2499840000001 373 302C361.5 304.7499840000001 350.375008 307.7499840000001 340 311C319.124992 317.624992 299.750016 327.124992 300 327C269 347.875008 256.375008 373 253 400C249.624992 427 257.124992 455.749984 269 476C284 500.124992 306.5 512.749984 330 513zM201 290C216.250016 291.124992 232.250016 287.375008 247 279C247.250016 278.875008 247.750016 278.124992 248 278C249.750016 277 252 276 254 275C258 272.875008 262.624992 270.7499840000001 269 268C281.750016 262.5 299.375008 256.5 322 250C330 247.7499840000001 339.750016 245.2499840000001 349 243C352.375008 242.124992 355.5 240.875008 359 240C359.375008 239.875008 359.624992 240.124992 360 240C372.750016 236.7499840000001 385.375008 233.875008 398 232L398 233C431.375008 227.5 469.250016 224 512 224C593.124992 224 657.875008 237.624992 703 251C725.624992 257.7499840000001 743.750016 264.875008 756 270C760.5 271.875008 763 273.624992 766 275L769 275L770 276L776 279C815.750016 300.2499840000001 863.5 287.624992 886 248L886 247C907.875008 209.624992 895.250016 161.2499840000001 856 139L855 139L855 138C852.5 136.5 816.5 116.875008 758 99C699.5 81.124992 616 64 512 64C408 64 324.624992 80.875008 266 99C208.124992 117 179.124992 133.375008 168 139C167.5 139.2499840000001 167.375008 139.7499840000001 167 140C128.750016 162.624992 116.875008 209.875008 139 249C150.124992 267.624992 166.750016 281.5 186 287C190.875008 288.375008 195.875008 289.624992 201 290z"/>
    <glyph glyph-name="spell-check" unicode="" horiz-adv-x="1024" d="M234.6249984 736L96 320L163.4375008 320L195.4375008 416L341.375008 416L373.375008 320L440.8125120000001 320L302.1249984 736L234.6249984 736zM480 736L480 576L480 512L480 320L672 320C742.592 320 800 377.408 800 448C800 501.700832 766.66256 547.589344 719.687488 566.562496C729.846976 583.4146624 736 602.9276224 736 624C736 685.76 685.76 736 624 736L480 736zM544 672L624 672C650.464 672 672 650.4639999999999 672 624C672 597.5360000000001 650.464 576 624 576L544 576L544 672zM268.4375008 634.8124992L320.062496 480L216.8124992 480L268.4375008 634.8124992zM544 512L624 512L672 512C707.296 512 736 483.296 736 448C736 412.704 707.296 384 672 384L544 384L544 512zM889.875008 327.124992L611.750016 60.375008L486.187488 181.2499840000001L441.8125120000001 135.187488L611.624992 -28.375008L934.124992 280.875008L889.875008 327.124992z"/>
    <glyph glyph-name="angle-down" unicode="" horiz-adv-x="1024" d="M135 551L89 505L489 105L512 83L535 105L935 505L889 551L512 174z"/>
    <glyph glyph-name="umbrella" unicode="" horiz-adv-x="1024" d="M480 768L480 702C287.624992 685.875008 136.124992 529 129 364C128.875008 360 128 356 128 352L192 352C192 354.5 194.875008 360.875008 209 369C223.124992 377.124992 246 384 272 384C298 384 320.875008 377.124992 335 369C349.124992 360.875008 352 354.5 352 352L416 352C416 352.375008 418.624992 360.375008 436 369C453.375008 377.624992 481 384 512 384C543 384 570.624992 377.624992 588 369C605.375008 360.375008 608 352.375008 608 352L672 352C672 354.5 674.875008 360.875008 689 369C703.124992 377.124992 726 384 752 384C778 384 800.875008 377.124992 815 369C829.124992 360.875008 832 354.5 832 352L896 352C896 356.124992 895.624992 360.124992 895 364C887.875008 529 736.375008 685.875008 544 702L544 768zM512 640C651.124992 640 770 545.5 814 439C795 444.875008 774.124992 448 752 448C716.124992 448 683.375008 440 657 425C650.624992 421.375008 644.624992 416.749984 639 412C632.124992 417.249984 624.624992 422.124992 617 426C588 440.5 551.624992 448 512 448C472.375008 448 436 440.5 407 426C399.5 422.249984 392.624992 417.124992 386 412C385.750016 412.124992 385.250016 411.875008 385 412C379.375008 416.749984 373.375008 421.375008 367 425C340.624992 440 307.875008 448 272 448C249.875008 448 229 444.875008 210 439C254 545.5 372.875008 640 512 640zM480 352L480 96C480 77.875008 466.124992 64 448 64C429.875008 64 416 77.875008 416 96L416 128L352 128L352 96C352 43.375008 395.375008 0 448 0C500.624992 0 544 43.375008 544 96L544 352z"/>
    <glyph glyph-name="chevron-circle-right" unicode="" horiz-adv-x="1024" d="M512 800C282.624992 800 96 613.375008 96 384C96 154.624992 282.624992 -32 512 -32C741.375008 -32 928 154.624992 928 384C928 613.375008 741.375008 800 512 800zM512 736C706.750016 736 864 578.749984 864 384C864 189.2499840000001 706.750016 32 512 32C317.250016 32 160 189.2499840000001 160 384C160 578.749984 317.250016 736 512 736zM455 599L409 553L578 384L409 215L455 169L647 361L669 384L647 407z"/>
    <glyph glyph-name="film" unicode="" horiz-adv-x="1024" d="M128 768L128 0L896 0L896 768zM192 704L256 704L256 672L320 672L320 704L704 704L704 672L768 672L768 704L832 704L832 64L768 64L768 96L704 96L704 64L320 64L320 96L256 96L256 64L192 64zM256 608L256 544L320 544L320 608zM704 608L704 544L768 544L768 608zM256 480L256 416L320 416L320 480zM704 480L704 416L768 416L768 480zM256 352L256 288L320 288L320 352zM704 352L704 288L768 288L768 352zM256 224L256 160L320 160L320 224zM704 224L704 160L768 160L768 224z"/>
    <glyph glyph-name="user-friends" unicode="" horiz-adv-x="1024" d="M288 672C182.375008 672 96 585.624992 96 480C96 416.5 127.250016 360 175 325C90.624992 283.124992 32 196.375008 32 96L96 96C96 202.375008 181.624992 288 288 288C394.375008 288 480 202.375008 480 96L544 96C544 202.375008 629.624992 288 736 288C842.375008 288 928 202.375008 928 96L992 96C992 196.375008 933.375008 283.124992 849 325C896.750016 360 928 416.5 928 480C928 585.624992 841.624992 672 736 672C630.375008 672 544 585.624992 544 480C544 416.5 575.250016 360 623 325C576.375008 301.875008 537.250016 265.375008 512 220C486.750016 265.375008 447.624992 301.875008 401 325C448.750016 360 480 416.5 480 480C480 585.624992 393.624992 672 288 672zM288 608C359.124992 608 416 551.124992 416 480C416 408.875008 359.124992 352 288 352C216.875008 352 160 408.875008 160 480C160 551.124992 216.875008 608 288 608zM736 608C807.124992 608 864 551.124992 864 480C864 408.875008 807.124992 352 736 352C664.875008 352 608 408.875008 608 480C608 551.124992 664.875008 608 736 608z"/>
    <glyph glyph-name="prescription-bottle" unicode="" horiz-adv-x="1024" d="M317.6875008 800C287.1915008 800 259.7570016 783.014 246.1249984 755.75L236.25 736L224 736C188.704 736 160 707.296 160 672L160 544L192 544L192 32C192 -3.296 220.704 -32 256 -32L768 -32C803.296 -32 832 -3.296 832 32L832 544L864 544L864 672C864 707.296 835.296 736 800 736L787.750016 736L777.875008 755.75C764.275008 783.014 736.840512 800 706.312512 800L317.6875008 800zM317.6875008 736L706.312512 736C712.424512 736 717.904992 732.6275008 720.624992 727.1875008L748.249984 672L800 672L800 608L224 608L224 672L275.75 672L303.3750016 727.1875008C306.0949984 732.6275008 311.5755008 736 317.6875008 736zM256 544L768 544L768 32L256 32L256 128L448 128L448 192L256 192L256 256L448 256L448 320L256 320L256 384L448 384L448 448L256 448L256 544z"/>
    <glyph glyph-name="alternate-medical-file" unicode="" horiz-adv-x="1024" d="M192 800L192 448L235.75 448L256 498.562496L256 736L576 736L576 544L768 544L768 32L256 32L256 216.124992L254.3124992 217.812512L216.1875008 256L192 256L192 -32L832 -32L832 589L823 599L631 791L621 800L192 800zM640 690L722 608L640 608L640 690zM351 563.624992L276.25 377L269.25 384L64 384L64 320L242.75 320L299.6249984 263L353 396.375008L449 172.375008L515.249984 338L524.249984 320L584.624992 320C596.112992 300.256 617.152 288 640 288C675.36 288 704 316.64 704 352C704 387.36 675.36 416 640 416C617.12 416 595.984992 403.7440000000001 584.624992 384L563.750016 384L508.750016 494L447 339.624992L351 563.624992z"/>
    <glyph glyph-name="angry-face" unicode="" horiz-adv-x="1024" d="M512 768C300.250016 768 128 595.749984 128 384C128 172.2499840000001 300.250016 0 512 0C723.750016 0 896 172.2499840000001 896 384C896 595.749984 723.750016 768 512 768zM512 704C689.124992 704 832 561.124992 832 384C832 206.875008 689.124992 64 512 64C334.875008 64 192 206.875008 192 384C192 561.124992 334.875008 704 512 704zM342 512C328.5 498.375008 320 479.749984 320 459C320 417.624992 353.624992 384 395 384C415.624992 384 434.5 392.375008 448 406zM682 512L576 406C589.5 392.375008 608.375008 384 629 384C670.375008 384 704 417.624992 704 459C704 479.624992 695.624992 498.5 682 512zM594 325C589.375008 324.875008 584.5 324.624992 580 324C544.124992 318.624992 517 299 493 283C469 267 447.875008 254.5 432 252C416.124992 249.5 401.875008 252 375 279L329 233C365.250016 196.5 406.5 183.375008 442 189C477.5 194.624992 504.124992 214.124992 528 230C551.875008 245.875008 572.375008 257.5 589 260C605.624992 262.5 622 260.375008 650 233L694 279C661.250016 311 626.375008 325.5 594 325z"/>
    <glyph glyph-name="praying-hands" unicode="" horiz-adv-x="1024" d="M480 800C427.375008 800 384 756.624992 384 704L384.5 709.249984L353 520.124992L292.5 354.624992C291.375008 353.124992 290 352 288 352L256 352L256 384L96 384L96 -32L256 -32L256 64L381.624992 64C434.250016 64 481.624992 89.5 512 129.124992C542.375008 89.5 589.750016 64 642.375008 64L768 64L768 -32L928 -32L928 384L768 384L768 352L736 352C734 352 732.624992 353.124992 731.5 354.624992L671 520.124992L639.5 709.249984L640 704C640 756.624992 596.624992 800 544 800C533.124992 800 522 797.875008 512 792.749984C502 797.875008 490.875008 800 480 800zM478.875008 735.5C479.5 730.875008 480 720.375008 480 704L480 210C471.124992 162.5 430.250016 128 381.624992 128L256 128L256 288L288 288C313.124992 288 336.5 301.624992 348.875008 323.5L350.124992 325.875008L415 503.875008L448 701.375008L448 704C448 721.624992 461.5 734.875008 478.875008 735.5zM545.124992 735.5C562.5 734.875008 576 721.624992 576 704L576 701.375008L609 503.875008L673.875008 325.875008L675.124992 323.5C687.5 301.624992 710.875008 288 736 288L768 288L768 128L642.375008 128C593.750016 128 552.875008 162.5 544 210L544 704C544 720.375008 544.5 730.875008 545.124992 735.5zM160 320L192 320L192 32L160 32zM832 320L864 320L864 32L832 32z"/>
    <glyph glyph-name="x-ray" unicode="" horiz-adv-x="1024" d="M160 736L160 32L864 32L864 736zM224 672L800 672L800 96L224 96zM480 640L480 608L384 608L384 544L480 544L480 512L320 512L320 448L480 448L480 416L352 416L352 352L480 352L480 270C463.250016 278.624992 444.375008 288 432 288C405.5 288 384 266.5 384 240C384 213.5 405.5 192 432 192C444.124992 192 485.5 160 512 160C538.5 160 579.875008 192 592 192C618.5 192 640 213.5 640 240C640 266.5 618.5 288 592 288C579.624992 288 560.750016 278.624992 544 270L544 640zM576 608L576 544L640 544L640 608zM576 512L576 448L704 448L704 512zM576 416L576 352L672 352L672 416z"/>
    <glyph glyph-name="alternate-crop" unicode="" horiz-adv-x="1024" d="M256 768L256 640L128 640L128 576L256 576L256 128L704 128L704 0L768 0L768 128L896 128L896 192L704 192L366 192L320 192L320 238L320 576L320 768L256 768zM384 640L384 576L704 576L704 256L768 256L768 640L384 640z"/>
    <glyph glyph-name="cocktail" unicode="" horiz-adv-x="1024" d="M272 768C174.875008 768 96 689.124992 96 592C96 494.875008 174.875008 416 272 416C298 416 322.5 422.5 345 433L512 213L512 32L384 32L384 -32L704 -32L704 32L576 32L576 213L858 585L864 594L864 640L440 640C420.624992 714.249984 351.5 768 272 768zM272 704C316.5 704 354.875008 677.124992 372 640L224 640L224 594L230 585L305 486C294 482.124992 282.750016 480 272 480C209.124992 480 160 529.124992 160 592C160 654.875008 209.124992 704 272 704zM318 576L770 576L722 512L432 512L480 448L673 448L544 277z"/>
    <glyph glyph-name="window-restore" unicode="" horiz-adv-x="1024" d="M160 736L160 32L864 32L864 736zM224 672L800 672L800 96L224 96zM384 608L384 480L288 480L288 160L640 160L640 288L736 288L736 608zM448 544L672 544L672 512L448 512zM448 448L672 448L672 352L448 352zM352 416L384 416L384 383L352 383zM352 319L384 319L384 288L576 288L576 224L352 224z"/>
    <glyph glyph-name="less-than" unicode="" horiz-adv-x="1024" d="M832 704L192 409L192 359L832 64L832 133L303 384L832 635z"/>
    <glyph glyph-name="microphone-slash" unicode="" horiz-adv-x="1024" d="M119 823L73 777L905 -55L951 -9L750 192C780.750016 226 800 270.624992 800 320L800 448L736 448L736 320C736 288.2499840000001 724.375008 259.2499840000001 705 237L660 282C667.624992 292.5 672 306 672 320L672 704C672 739.249984 643.250016 768 608 768L416 768C380.750016 768 352 739.249984 352 704L352 590zM416 704L608 704L608 334L416 526zM224 448L224 320C224 214.124992 310.124992 128 416 128L480 128L480 64L352 64L352 0L672 0L672 64L544 64L544 128L608 128C616.124992 128 624.124992 129 632 130L570 192L416 192C345.375008 192 288 249.375008 288 320L288 448zM352 410L352 320C352 284.7499840000001 380.750016 256 416 256L506 256L442 320L416 320L416 346z"/>
    <glyph glyph-name="brain" unicode="" horiz-adv-x="1024" d="M416 768C354.875008 768 305.375008 723.624992 293 666C218.375008 652.624992 160 590.375008 160 512C160 504.124992 160.875008 497.124992 162 490C141.375008 459.624992 128 423.875008 128 384C128 326.5 156.624992 278.124992 197 243C194.124992 231.624992 192 220.2499840000001 192 208C192 128.875008 256.875008 64 336 64C336.875008 64 337.250016 64 338 64C356.624992 27.875008 388.875008 0 432 0C463.250016 0 491.624992 13.124992 512 34C532.375008 13.124992 560.750016 0 592 0C635.124992 0 667.375008 27.875008 686 64C686.750016 64 687.124992 64 688 64C763.124992 64 824.750016 122.5 831 196L832 196C832 198 831.124992 200 831 202C831.124992 204 832 206 832 208C832 219.875008 827.750016 230 825 241C866.5 276.2499840000001 896 325.5 896 384C896 423.875008 882.624992 459.624992 862 490C863.124992 497.124992 864 504.124992 864 512C864 590.375008 805.624992 652.624992 731 666C718.624992 723.624992 669.124992 768 608 768C569.624992 768 535.5 750.124992 512 723C488.5 750.124992 454.375008 768 416 768zM416 704C451.750016 704 480 675.749984 480 640L480 576C480 522.624992 437.375008 480 384 480L384 416C420.250016 416 453.124992 428.5 480 449L480 112C480 85.124992 458.875008 64 432 64C408.124992 64 389 80.5 385 103L379 134L348 129C342.375008 128.124992 338.875008 128 336 128C291.5 128 256 163.5 256 208C256 217.875008 257.624992 227.124992 261 236C261.250016 236.7499840000001 261.750016 237.2499840000001 262 238C271.875008 262.624992 293.375008 280.624992 320 286L307 349C273.624992 342.2499840000001 244.624992 324.5 224 299C203.875008 321.5 192 351.2499840000001 192 384C192 414 202.250016 440.749984 220 463L230 475L227 491C225.250016 498.5 224 505.124992 224 512C224 565.375008 266.624992 608 320 608L352 608L352 640C352 675.749984 380.250016 704 416 704zM608 704C643.750016 704 672 675.749984 672 640L672 608L704 608C757.375008 608 800 565.375008 800 512C800 505.124992 798.750016 498.5 797 491L794 475L804 463C821.750016 440.749984 832 414 832 384C832 345.624992 815.624992 311.375008 789 288C767.124992 307.375008 739.250016 320 708 320C677.750016 320 650.5 309.2499840000001 629 291L670 242C680.375008 250.7499840000001 693.124992 256 708 256C738.875008 256 763.5 232.875008 767 203C764.375008 160.875008 730.750016 128 688 128C685.124992 128 681.624992 128.124992 676 129L645 134L639 103C635 80.5 615.875008 64 592 64C565.124992 64 544 85.124992 544 112L544 449C570.875008 428.5 603.750016 416 640 416L640 480C586.624992 480 544 522.624992 544 576L544 640C544 675.749984 572.250016 704 608 704z"/>
    <glyph glyph-name="star" unicode="" horiz-adv-x="1024" d="M970.750016 494.5L645.250016 528.875008L512 827.749984L378.750016 528.875008L53.250016 494.5L296.375008 275.375008L228.5 -44.750016L512 118.7499840000001L795.5 -44.750016L727.624992 275.375008z"/>
    <glyph glyph-name="at" unicode="" horiz-adv-x="1024" d="M518 768C282.375008 771.5 93.250016 560.5 133 319C160 155.124992 294.5 26.249984 459 4C569.875008 -11 673.5 21 752 84L712 134C646.5 81.5 560.375008 54.375008 467 67C330.875008 85.375008 219.250016 193.5 197 329C163.5 532.875008 319.750016 706.875008 517 704C685.124992 701.5 826.875008 562.124992 832 394C832.124992 390.375008 832 386.875008 832 383C831.750016 312.5 774.624992 256 704 256C668.250016 256 640 284.2499840000001 640 320L640 576L576 576L576 551C553 566.624992 525.624992 576 496 576C416.875008 576 352 511.124992 352 432L352 336C352 256.875008 416.875008 192 496 192C539.124992 192 577.5 211.624992 604 242C627.5 212.124992 663.375008 192 704 192C809.124992 192 895.624992 277.7499840000001 896 383C896 387.249984 896.124992 391.375008 896 396C889.875008 598.749984 720.750016 765 518 768zM496 512C540.5 512 576 476.5 576 432L576 336C576 291.5 540.5 256 496 256C451.5 256 416 291.5 416 336L416 432C416 476.5 451.5 512 496 512z"/>
    <glyph glyph-name="battery-1-4-full" unicode="" horiz-adv-x="1024" d="M96 640L96 128L864 128L864 288L928 288L928 480L864 480L864 640zM160 576L800 576L800 192L160 192zM224 512L224 256L352 256L352 512z"/>
    <glyph glyph-name="address-card" unicode="" horiz-adv-x="1024" d="M96 704L96 64L928 64L928 704zM160 640L864 640L864 128L755 128C752.5 132.375008 753.624992 138.375008 750 142C737.875008 154.124992 720.750016 160 704 160C687.250016 160 670.124992 154.124992 658 142C654.375008 138.375008 655.5 132.375008 653 128L371 128C368.5 132.375008 369.624992 138.375008 366 142C353.875008 154.124992 336.750016 160 320 160C303.250016 160 286.124992 154.124992 274 142C270.375008 138.375008 271.5 132.375008 269 128L160 128zM384 576C313.624992 576 256 518.375008 256 448C256 412.375008 271.250016 380.2499840000001 295 357C252.375008 328.124992 224 278.875008 224 224L288 224C288 277 331 320 384 320C437 320 480 277 480 224L544 224C544 278.875008 515.624992 328.124992 473 357C496.750016 380.2499840000001 512 412.375008 512 448C512 518.375008 454.375008 576 384 576zM384 512C419.750016 512 448 483.749984 448 448C448 412.249984 419.750016 384 384 384C348.250016 384 320 412.249984 320 448C320 483.749984 348.250016 512 384 512zM608 480L608 416L800 416L800 480zM608 352L608 288L800 288L800 352z"/>
    <glyph glyph-name="comment" unicode="" horiz-adv-x="1024" d="M96 704L96 64L402.750016 64L512 -45.250016L621.250016 64L928 64L928 704zM160 640L864 640L864 128L594.750016 128L512 45.249984L429.250016 128L160 128zM288 544L288 480L736 480L736 544zM288 416L288 352L736 352L736 416zM288 288L288 224L608 224L608 288z"/>
    <glyph glyph-name="object-ungroup" unicode="" horiz-adv-x="1024" d="M160 736L160 608L192 608L192 288L160 288L160 160L288 160L288 192L352 192L352 128L320 128L320 0L448 0L448 32L768 32L768 0L896 0L896 128L864 128L864 448L896 448L896 576L768 576L768 544L704 544L704 608L736 608L736 736L608 736L608 704L288 704L288 736zM288 640L608 640L608 608L640 608L640 288L608 288L608 256L288 256L288 288L256 288L256 608L288 608zM704 480L768 480L768 448L800 448L800 128L768 128L768 96L448 96L448 128L416 128L416 192L608 192L608 160L736 160L736 288L704 288z"/>
    <glyph glyph-name="alternate-sort-alphabetical-up" unicode="" horiz-adv-x="1024" d="M160 736L160 672L337.937504 672L168.9375008 503.062496L160 493.124992L160 416L416 416L416 480L238.0624992 480L407.062496 648.9375008L416 658.8750016L416 736L160 736zM736 720L712.937504 697.9375008L576 560L621.124992 514.875008L704 598.0624992L704 0L768 0L768 598.0624992L850.875008 514.875008L896 560L759.062496 697.9375008L736 720zM262.0624992 352L255.0624992 330.875008L192.9375008 160L192 160L192 158.062496L161.9375008 74.875008L160 70.062496L160 32L224 32L224 58.875008L237.1249984 96L338.875008 96L352 58.875008L352 32L416 32L416 70.062496L414.062496 74.875008L384 158.062496L384 160L383.062496 160L320.937504 330.875008L313.9375008 352L262.0624992 352zM288 234.875008L314.8750016 160L261.1249984 160L288 234.875008z"/>
    <glyph glyph-name="filter" unicode="" horiz-adv-x="1024" d="M160 768L160 693L167 684L416 373L416 0L467 38L595 134L608 144L608 373L857 684L864 693L864 768zM233 704L791 704L561 416L463 416zM480 352L544 352L544 176L480 128z"/>
    <glyph glyph-name="baby-carriage" unicode="" horiz-adv-x="1024" d="M576 768L576 480L310 480C302.624992 497.375008 290.875008 520.624992 271 547C237.250016 591.875008 179.375008 640 96 640L96 576C155.375008 576 193.5 544.124992 220 509C245.250016 475.5 255 444 256 441C258.624992 332.5 322.624992 238.7499840000001 414 192C362.250016 190.875008 320 148 320 96C320 43.375008 363.375008 0 416 0C468.624992 0 512 43.375008 512 96C512 124.375008 499.750016 150.375008 480 168C500.624992 163.2499840000001 522 160 544 160L640 160C662 160 683.375008 163.2499840000001 704 168C684.250016 150.375008 672 124.375008 672 96C672 43.375008 715.375008 0 768 0C820.624992 0 864 43.375008 864 96C864 148 821.750016 190.875008 770 192C854.250016 235.124992 914.875008 318.2499840000001 926 416C927 425.249984 927.875008 434.5 928 444C928 444.624992 928 445.375008 928 446C928 446 928.250016 451.249984 928 460L928 480L926 480C923.624992 510.624992 917.250016 557 894 606C855.875008 686.249984 769.5 768 608 768zM640 700C755.624992 690.5 809.375008 636.124992 837 578C855.875008 538.124992 860.124992 504.624992 862 480L640 480zM327 416L857 416C840.750016 308.375008 752 224 640 224L544 224C432 224 343.250016 308.375008 327 416zM416 128C434 128 448 114 448 96C448 78 434 64 416 64C398 64 384 78 384 96C384 114 398 128 416 128zM768 128C786 128 800 114 800 96C800 78 786 64 768 64C750 64 736 78 736 96C736 114 750 128 768 128z"/>
    <glyph glyph-name="winking-face" unicode="" horiz-adv-x="1024" d="M512 768C300.250016 768 128 595.749984 128 384C128 172.2499840000001 300.250016 0 512 0C723.750016 0 896 172.2499840000001 896 384C896 595.749984 723.750016 768 512 768zM512 704C689.124992 704 832 561.124992 832 384C832 206.875008 689.124992 64 512 64C334.875008 64 192 206.875008 192 384C192 561.124992 334.875008 704 512 704zM368 512C341.5 512 320 490.5 320 464C320 437.5 341.5 416 368 416C394.5 416 416 437.5 416 464C416 490.5 394.5 512 368 512zM576 480L576 416L736 416L736 480zM671 351C671 297.124992 649.375008 259.7499840000001 618 233C586.624992 206.2499840000001 545.124992 192 512 192C444.124992 192 398 219.5 362 255L317 209C361.624992 165.124992 426.250016 128 512 128C561.750016 128 616.375008 146.7499840000001 660 184C703.624992 221.2499840000001 735 278.7499840000001 735 351z"/>
    <glyph glyph-name="file-invoice" unicode="" horiz-adv-x="1024" d="M192 800L192 -32L832 -32L832 588.8124992L822.375008 598.3750016L630.375008 790.3750016L620.812512 800L192 800zM256 736L576 736L576 544L768 544L768 32L256 32L256 736zM640 691.1875008L723.187488 608L640 608L640 691.1875008zM320 480L320 416L704 416L704 480L320 480zM320 320L320 256L544 256L544 320L320 320zM608 320L608 256L704 256L704 320L608 320zM320 192L320 128L544 128L544 192L320 192zM608 192L608 128L704 128L704 192L608 192z"/>
    <glyph glyph-name="window-close" unicode="" horiz-adv-x="1024" d="M160 736L160 32L864 32L864 736zM224 672L800 672L800 96L224 96zM374 566L329 521L466 384L327 245L372 200L511 339L649 201L694 246L556 384L692 520L647 565L511 429z"/>
    </font>
</defs>
</svg>
