<?xml version="1.0" standalone="no"?>
<!DOCTYPE svg PUBLIC "-//W3C//DTD SVG 1.1//EN" "http://www.w3.org/Graphics/SVG/1.1/DTD/svg11.dtd" >
<svg xmlns="http://www.w3.org/2000/svg" xmlns:xlink="http://www.w3.org/1999/xlink" version="1.1">
<metadata></metadata>
<defs>
<font id="a_iranian_sansregular" horiz-adv-x="1303" >
<font-face units-per-em="2048" ascent="1556" descent="-492" />
<missing-glyph horiz-adv-x="651" />
<glyph horiz-adv-x="0" />
<glyph horiz-adv-x="0" />
<glyph unicode="&#xd;" horiz-adv-x="500" />
<glyph unicode=" "  horiz-adv-x="651" />
<glyph unicode="&#x09;" horiz-adv-x="651" />
<glyph unicode="&#xa0;" horiz-adv-x="651" />
<glyph unicode="!" horiz-adv-x="823" d="M513 0h-203v254h203v-254zM493 481h-162l-21 357v655h203v-655z" />
<glyph unicode="&#x22;" horiz-adv-x="942" d="M367 938h-170v555h170v-555zM745 938h-170v555h170v-555z" />
<glyph unicode="#" horiz-adv-x="1716" d="M965 567l82 334h-291l-84 -334h293zM1444 414h-357l-104 -414h-160l103 414h-293l-103 -414h-161l104 414h-315v153h352l84 334h-322v154h361l102 415h162l-104 -415h292l105 415h160l-103 -415h312v-154h-351l-82 -334h318v-153z" />
<glyph unicode="$" d="M692 -301h-100l-1 301q-105 2 -210 24.5t-211 67.5v180q102 -64 206.5 -96.5t215.5 -33.5v456q-221 36 -321.5 122t-100.5 236q0 163 109 257t313 108v235h100v-232q93 -4 180 -19.5t170 -42.5v-175q-83 42 -170.5 65t-179.5 27v-427q227 -35 334 -125t107 -246 q0 -169 -113.5 -266.5t-327.5 -112.5v-303zM592 1180q-116 -13 -177 -66t-61 -141q0 -86 56.5 -134t181.5 -69v410zM692 145q127 17 191.5 72t64.5 145q0 88 -61.5 140t-194.5 76v-433z" />
<glyph unicode="%" horiz-adv-x="1946" d="M1489 98q85 0 134.5 74.5t49.5 204.5q0 131 -49.5 205.5t-134.5 74.5q-87 0 -136.5 -74t-49.5 -206q0 -130 49.5 -204.5t136.5 -74.5zM1739 80q-93 -109 -250 -109q-160 0 -253 109.5t-93 296.5q0 188 93.5 297.5t252.5 109.5q158 0 251 -110t93 -297t-94 -297zM457 834 q87 0 136.5 74t49.5 206q0 129 -50 204t-136 75t-135.5 -74.5t-49.5 -204.5q0 -132 49 -206t136 -74zM586 -29h-160l934 1549h160zM709 816q-93 -109 -252 -109t-251.5 109.5t-92.5 297.5q0 186 93 296t251 110t252 -109.5t94 -296.5q0 -189 -94 -298z" />
<glyph unicode="&#x26;" horiz-adv-x="1597" d="M498 803q-91 -81 -133.5 -161.5t-42.5 -168.5q0 -146 106 -243t266 -97q95 0 178 31.5t156 95.5zM1534 0h-252l-143 147q-104 -89 -218 -132.5t-245 -43.5q-241 0 -394 137.5t-153 352.5q0 128 67 240.5t201 211.5q-48 63 -73 125.5t-25 122.5q0 162 111 260.5t295 98.5 q83 0 165.5 -18t167.5 -54v-182q-87 47 -166 71.5t-147 24.5q-105 0 -170.5 -55.5t-65.5 -143.5q0 -51 29.5 -102.5t120.5 -145.5l508 -520q59 89 92 190.5t39 215.5h186q-12 -132 -64 -261t-145 -255z" />
<glyph unicode="'" horiz-adv-x="563" d="M197 940v553h170v-553h-170z" />
<glyph unicode="(" horiz-adv-x="799" d="M475 -270q-150 235 -224.5 462t-74.5 451q0 223 74 449t225 462h160q-134 -230 -199 -455t-65 -456t65.5 -457.5t198.5 -455.5h-160z" />
<glyph unicode=")" horiz-adv-x="799" d="M164 -270q133 229 198.5 455.5t65.5 457.5t-65.5 456t-198.5 455h160q150 -236 224.5 -462t74.5 -449q0 -224 -74.5 -451t-224.5 -462h-160z" />
<glyph unicode="*" horiz-adv-x="1024" d="M905 760l-336 203v-377h-114v377l-336 -203l-58 98l359 195l-359 194l58 99l336 -203v377h114v-377l336 203l58 -99l-359 -194l359 -195z" />
<glyph unicode="+" horiz-adv-x="1716" d="M1499 557h-557v-557h-168v557h-557v170h557v557h168v-557h557v-170z" />
<glyph unicode="," horiz-adv-x="651" d="M287 -238h-129l82 320v172h211v-172z" />
<glyph unicode="-" horiz-adv-x="739" d="M639 479h-539v164h539v-164z" />
<glyph unicode="." horiz-adv-x="651" d="M430 0h-211v254h211v-254z" />
<glyph unicode="/" horiz-adv-x="690" d="M170 -190h-170l520 1683h170z" />
<glyph unicode="0" d="M651 131q157 0 235.5 153.5t78.5 460.5q0 308 -78.5 461.5t-235.5 153.5q-156 0 -234.5 -153.5t-78.5 -461.5q0 -307 78.5 -460.5t234.5 -153.5zM1034 169q-132 -198 -383 -198t-383.5 198.5t-132.5 575.5q0 378 132.5 576.5t383.5 198.5t383.5 -198.5t132.5 -576.5 q0 -377 -133 -576z" />
<glyph unicode="1" d="M1114 0h-860v170h330v1139l-359 -72v184l357 72h202v-1323h330v-170z" />
<glyph unicode="2" d="M1098 0h-948v170q115 119 313.5 319.5t249.5 258.5q97 109 135.5 184.5t38.5 148.5q0 119 -83.5 194t-217.5 75q-95 0 -200.5 -33t-225.5 -100v204q122 49 228 74t194 25q232 0 370 -116t138 -310q0 -92 -34.5 -174.5t-125.5 -194.5q-25 -29 -159 -167.5t-378 -387.5h705 v-170z" />
<glyph unicode="3" d="M156 240q84 -49 184 -74t209 -25q190 0 289.5 75t99.5 218q0 132 -92.5 206.5t-257.5 74.5h-174v166h182q149 0 228 59.5t79 171.5q0 115 -81.5 176.5t-233.5 61.5q-83 0 -178 -18t-209 -56v180q115 32 215.5 48t189.5 16q230 0 364 -104.5t134 -282.5q0 -124 -71 -209.5 t-202 -118.5q145 -31 226.5 -129t81.5 -242q0 -221 -152 -342t-432 -121q-94 0 -193.5 18.5t-205.5 55.5v195z" />
<glyph unicode="4" d="M774 520v797l-510 -797h510zM975 0h-201v352h-674v195l621 946h254v-973h213v-168h-213v-352z" />
<glyph unicode="5" d="M158 238q90 -49 186 -73t203 -24q173 0 274 91t101 247t-101 247t-274 91q-81 0 -161.5 -18t-164.5 -56v750h793v-170h-608v-366q44 15 88 22.5t88 7.5q250 0 396 -137t146 -371q0 -241 -150 -374.5t-423 -133.5q-94 0 -191.5 16t-201.5 48v203z" />
<glyph unicode="6" d="M676 131q136 0 215.5 93.5t79.5 254.5q0 162 -79.5 255t-215.5 93t-215.5 -93t-79.5 -255q0 -161 79.5 -254.5t215.5 -93.5zM1077 1276q-76 36 -153.5 55t-153.5 19q-200 0 -305.5 -135t-120.5 -408q59 87 148 133.5t196 46.5q225 0 355.5 -136.5t130.5 -371.5 q0 -230 -136 -369t-362 -139q-259 0 -396 198.5t-137 575.5q0 354 168 564.5t451 210.5q76 0 153.5 -15t161.5 -45v-184z" />
<glyph unicode="7" d="M586 0h-211l510 1323h-717v170h960v-86z" />
<glyph unicode="8" d="M878 208q83 78 83 212q0 135 -82.5 212t-227.5 77q-144 0 -226.5 -77t-82.5 -212t82.5 -212t226.5 -77t227 77zM1055 916q-72 -89 -201 -121q146 -34 227.5 -133t81.5 -242q0 -217 -132.5 -333t-379.5 -116t-379.5 116t-132.5 333q0 143 82 242t228 133 q-130 32 -202.5 121t-72.5 217q0 179 127.5 283t349.5 104q223 0 350 -104t127 -283q0 -128 -73 -217zM854 933q74 65 74 181t-73.5 181t-203.5 65q-131 0 -203.5 -65t-72.5 -181t72.5 -181t203.5 -65q130 0 203 65z" />
<glyph unicode="9" d="M225 215q76 -36 154 -55t153 -19q200 0 305.5 134.5t120.5 408.5q-58 -86 -147 -132t-197 -46q-224 0 -354.5 135.5t-130.5 370.5q0 230 136 369t362 139q259 0 395.5 -198.5t136.5 -576.5q0 -353 -167.5 -563.5t-450.5 -210.5q-76 0 -154 15t-162 45v184zM627 664 q136 0 215.5 93t79.5 255q0 161 -79.5 254.5t-215.5 93.5t-215.5 -93.5t-79.5 -254.5q0 -162 79.5 -255t215.5 -93z" />
<glyph unicode=":" horiz-adv-x="690" d="M451 0h-211v254h211v-254zM451 805h-211v254h211v-254z" />
<glyph unicode=";" horiz-adv-x="690" d="M451 805h-211v254h211v-254zM287 -238h-129l82 320v172h211v-172z" />
<glyph unicode="&#x3c;" horiz-adv-x="1716" d="M1499 94l-1282 465v166l1282 465v-182l-1032 -367l1032 -365v-182z" />
<glyph unicode="=" horiz-adv-x="1716" d="M1499 762h-1282v168h1282v-168zM1499 352h-1282v170h1282v-170z" />
<glyph unicode="&#x3e;" horiz-adv-x="1716" d="M1499 559l-1282 -465v182l1030 365l-1030 367v182l1282 -465v-166z" />
<glyph unicode="?" horiz-adv-x="1087" d="M594 0h-203v254h203v-254zM588 401h-191v154q0 101 28 166t118 151l90 89q57 53 82.5 100t25.5 96q0 89 -65.5 144t-173.5 55q-79 0 -168.5 -35t-186.5 -102v188q94 57 190.5 85t199.5 28q184 0 295.5 -97t111.5 -256q0 -76 -36 -144.5t-126 -154.5l-88 -86 q-47 -47 -66.5 -73.5t-27.5 -51.5q-6 -21 -9 -51t-3 -82v-123z" />
<glyph unicode="@" horiz-adv-x="2048" d="M1028 231q123 0 193.5 82t70.5 224q0 140 -72 222.5t-194 82.5q-121 0 -192.5 -82t-71.5 -223q0 -143 71 -224.5t195 -81.5zM1610 -156q-125 -97 -272.5 -148.5t-299.5 -51.5q-185 0 -349 65.5t-292 190.5t-195 289.5t-67 353.5q0 182 68 347t194 290q129 127 298 194.5 t358 67.5q212 0 393.5 -87t304.5 -247q75 -98 114.5 -213t39.5 -238q0 -263 -159 -415t-439 -158v154q-60 -77 -137.5 -113.5t-180.5 -36.5q-172 0 -279.5 124.5t-107.5 324.5t108 325t279 125q103 0 181 -37.5t137 -113.5v131h143v-736q146 22 228.5 133.5t82.5 288.5 q0 107 -31.5 201t-95.5 174q-104 131 -253.5 200.5t-325.5 69.5q-123 0 -236 -32.5t-209 -96.5q-157 -102 -245.5 -267.5t-88.5 -358.5q0 -159 57.5 -298t166.5 -245q105 -104 243 -158.5t295 -54.5q129 0 253.5 43.5t228.5 124.5z" />
<glyph unicode="[" horiz-adv-x="799" d="M600 -270h-424v1826h424v-143h-240v-1540h240v-143z" />
<glyph unicode="\" horiz-adv-x="690" d="M690 -190h-170l-520 1683h170z" />
<glyph unicode="]" horiz-adv-x="799" d="M623 -270h-424v143h239v1540h-239v143h424v-1826z" />
<glyph unicode="^" horiz-adv-x="1716" d="M1499 936h-201l-440 395l-440 -395h-201l543 557h196z" />
<glyph unicode="_" horiz-adv-x="1024" d="M1044 -483h-1064v143h1064v-143z" />
<glyph unicode="`" horiz-adv-x="1024" d="M649 1264h-153l-326 374h197z" />
<glyph unicode="{" d="M1047 -334h-62q-249 0 -333.5 74t-84.5 295v239q0 151 -54 209t-196 58h-61v143h61q143 0 196.5 57.5t53.5 206.5v240q0 221 84.5 294.5t333.5 73.5h62v-143h-68q-141 0 -184 -44t-43 -185v-248q0 -157 -45.5 -228t-155.5 -96q111 -27 156 -98t45 -227v-248 q0 -141 43 -185t184 -44h68v-144z" />
<glyph unicode="|" horiz-adv-x="690" d="M430 -483h-170v2048h170v-2048z" />
<glyph unicode="}" d="M735 35q0 -221 -83.5 -295t-332.5 -74h-63v144h70q140 0 182.5 43t42.5 186v248q0 156 45 227t156 98q-111 25 -156 96t-45 228v248q0 142 -42.5 185.5t-182.5 43.5h-70v143h63q249 0 332.5 -73.5t83.5 -294.5v-240q0 -149 54 -206.5t196 -57.5h62v-143h-62 q-142 0 -196 -58t-54 -209v-239z" />
<glyph unicode="~" horiz-adv-x="1716" d="M1499 639q-105 -79 -194.5 -113t-186.5 -34q-110 0 -256 59q-11 4 -16 6q-7 3 -22 8q-155 62 -249 62q-88 0 -174 -38.5t-184 -121.5v178q105 79 194.5 113.5t186.5 34.5q110 0 257 -60l15 -6q8 -3 22 -8q155 -62 249 -62q86 0 170.5 38t187.5 122v-178z" />
<glyph unicode="&#xa0;" />
<glyph unicode="&#xa4;" d="M1210 199l-114 -113l-207 207q-59 -40 -117 -59t-119 -19q-58 0 -118 18.5t-121 55.5l-207 -207l-113 115l207 206q-37 62 -55.5 121t-18.5 117q0 64 19 122t57 114l-207 206l115 115l207 -207q55 39 113 57.5t122 18.5q60 0 118.5 -18t119.5 -56l207 209l114 -115 l-206 -206q37 -59 55 -118.5t18 -121.5q0 -63 -19 -120.5t-59 -114.5zM653 373q113 0 191 78.5t78 191.5q0 112 -77.5 189t-191.5 77q-112 0 -191 -77t-79 -189q0 -114 78.5 -192t191.5 -78z" />
<glyph unicode="&#xa7;" horiz-adv-x="1024" d="M323 611q70 -66 320 -201q63 45 94 90.5t31 91.5q0 75 -71.5 143t-317.5 201q-63 -46 -94 -91t-31 -91q0 -76 69 -143zM172 27q87 -39 161 -58.5t132 -19.5q102 0 158.5 42t56.5 118q0 102 -221 225l-25 14q-214 120 -278 196.5t-64 178.5q0 91 46.5 162.5t137.5 120.5 q-59 44 -88.5 100t-29.5 125q0 130 100 209.5t266 79.5q73 0 149.5 -14.5t155.5 -43.5v-164q-83 39 -154.5 58.5t-127.5 19.5q-97 0 -151 -40t-54 -111q0 -90 206 -205q26 -15 40 -23q211 -119 276.5 -196t65.5 -178q0 -90 -46 -160t-139 -123q62 -52 90.5 -106.5 t28.5 -118.5q0 -142 -102 -226t-275 -84q-73 0 -150 14.5t-165 43.5v164z" />
<glyph unicode="&#xab;" horiz-adv-x="1253" d="M1061 141l-469 418v82l469 418v-191l-301 -268l301 -268v-191zM627 141l-469 418v82l469 418v-191l-301 -268l301 -268v-191z" />
<glyph unicode="&#xac;" horiz-adv-x="1716" d="M1499 287h-168v405h-1114v170h1282v-575z" />
<glyph unicode="&#xad;" horiz-adv-x="739" d="M639 479h-539v164h539v-164z" />
<glyph unicode="&#xb0;" horiz-adv-x="1024" d="M647 1066q55 55 55 134t-55.5 135t-134.5 56q-80 0 -135 -55.5t-55 -135.5q0 -79 55 -133.5t135 -54.5t135 54zM635 1495q59 -24 102 -70q46 -45 69 -102t23 -123q0 -132 -92.5 -223.5t-226.5 -91.5q-135 0 -225 90t-90 225q0 134 92 227t225 93q64 0 123 -25z" />
<glyph unicode="&#xb6;" d="M1081 -197h-141v1567h-190v-1567h-142v846q-215 17 -332.5 127.5t-117.5 294.5q0 190 130 306t345 116h448v-1690z" />
<glyph unicode="&#xb7;" horiz-adv-x="651" d="M219 584v254h211v-254h-211z" />
<glyph unicode="&#xbb;" horiz-adv-x="1253" d="M662 559l-469 -418v191l301 268l-301 268v191l469 -418v-82zM1096 559l-469 -418v191l301 268l-301 268v191l469 -418v-82z" />
<glyph unicode="&#xd7;" horiz-adv-x="1716" d="M1317 63l-459 459l-459 -459l-118 121l456 457l-456 459l118 121l459 -459l459 459l119 -121l-457 -459l457 -457z" />
<glyph unicode="&#xf7;" horiz-adv-x="1716" d="M981 889h-246v246h246v-246zM981 150h-246v245h246v-245zM1499 557h-1282v170h1282v-170z" />
<glyph unicode="&#x2000;" horiz-adv-x="819" />
<glyph unicode="&#x2001;" horiz-adv-x="1638" />
<glyph unicode="&#x2002;" horiz-adv-x="819" />
<glyph unicode="&#x2003;" horiz-adv-x="1638" />
<glyph unicode="&#x2004;" horiz-adv-x="546" />
<glyph unicode="&#x2005;" horiz-adv-x="409" />
<glyph unicode="&#x2006;" horiz-adv-x="273" />
<glyph unicode="&#x2007;" horiz-adv-x="273" />
<glyph unicode="&#x2008;" horiz-adv-x="204" />
<glyph unicode="&#x2009;" horiz-adv-x="327" />
<glyph unicode="&#x200a;" horiz-adv-x="91" />
<glyph unicode="&#x2010;" horiz-adv-x="739" d="M639 479h-539v164h539v-164z" />
<glyph unicode="&#x2011;" horiz-adv-x="739" d="M639 479h-539v164h539v-164z" />
<glyph unicode="&#x2012;" horiz-adv-x="739" d="M639 479h-539v164h539v-164z" />
<glyph unicode="&#x2013;" horiz-adv-x="1224" d="M1124 479h-1024v164h1024v-164z" />
<glyph unicode="&#x2014;" horiz-adv-x="2048" d="M2048 489h-2048v144h2048v-144z" />
<glyph unicode="&#x2022;" horiz-adv-x="1208" d="M901 762q0 -125 -86 -211t-211 -86t-211 86t-86 211q0 124 86.5 209.5t212.5 85.5q124 0 209.5 -85.5t85.5 -209.5z" />
<glyph unicode="&#x2026;" horiz-adv-x="2048" d="M1130 0h-212v254h212v-254zM1812 0h-213v254h213v-254zM449 0h-213v254h213v-254z" />
<glyph unicode="&#x202f;" horiz-adv-x="327" />
<glyph unicode="&#x205f;" horiz-adv-x="409" />
<glyph unicode="&#x20ac;" d="M1167 115q-89 -72 -181.5 -108t-188.5 -36q-237 0 -391.5 145t-194.5 404h-211l55 123h139q0 23 -0.5 46.5t-0.5 55.5q0 35 0.5 58.5t0.5 46.5h-194l55 123h156q40 257 195 402t391 145q98 0 190.5 -35.5t179.5 -106.5v-213q-91 105 -175.5 150t-186.5 45 q-157 0 -258 -100t-133 -287h577l-55 -123h-538q-2 -24 -2.5 -47t-0.5 -58q0 -32 0.5 -55t2.5 -47h446l-56 -123h-374q32 -187 133 -288t258 -101q102 0 186.5 45t175.5 150v-211z" />
<glyph unicode="&#x25fc;" horiz-adv-x="500" d="M0 0v0v0v0v0z" />
</font>
</defs>
</svg>
