<?xml version="1.0" standalone="no"?>
<!DOCTYPE svg PUBLIC "-//W3C//DTD SVG 1.1//EN" "http://www.w3.org/Graphics/SVG/1.1/DTD/svg11.dtd" >
<svg xmlns="http://www.w3.org/2000/svg">
<metadata></metadata>
<defs>
<font id="iransanswebultralight" horiz-adv-x="1223" >
<font-face units-per-em="2048" ascent="1638" descent="-410" />
<missing-glyph horiz-adv-x="578" />
<glyph horiz-adv-x="0" />
<glyph unicode="&#xd;" horiz-adv-x="536" />
<glyph unicode=" "  horiz-adv-x="578" />
<glyph unicode="&#x09;" horiz-adv-x="578" />
<glyph unicode="&#xa0;" horiz-adv-x="578" />
<glyph unicode="!" horiz-adv-x="462" d="M114 132l119 120l114 -114l-120 -120zM167 1456h124l-7 -1051h-111z" />
<glyph unicode="&#x22;" horiz-adv-x="633" d="M154 1060l4 488h104v-151l-22 -337h-86zM408 1060l3 488h105v-151l-21 -337h-87z" />
<glyph unicode="#" horiz-adv-x="1284" d="M92 334v101h293l90 475h-301v103h319l86 448h107l-86 -448h340l85 448h108l-85 -448h247v-103h-267l-89 -475h275v-101h-294l-84 -442h-108l84 442h-339l-83 -442h-107l84 442h-275zM492 435h339l90 475h-340z" />
<glyph unicode="$" d="M124 343h129q0 -169 98 -264t274 -95q155 0 250 82q96 82 96 214q0 119 -77 195q-78 77 -274 144q-244 76 -342 182t-98 271q0 176 108 286q109 111 293 124v218h110v-218q190 -17 294 -142t104 -340h-128q0 171 -88 269q-89 100 -240 100q-152 0 -239 -81 q-86 -80 -86 -213q0 -129 79 -202q78 -72 268 -137t275 -123t128 -139t43 -193q0 -177 -111 -285t-303 -123v-205h-109v204q-215 13 -335 136q-119 122 -119 335z" />
<glyph unicode="%" horiz-adv-x="1631" d="M118 1085v75q0 142 86 232q87 92 221 92q133 0 220 -92t87 -239v-76q0 -139 -86 -231t-219 -92t-221 91t-88 240zM222 1077q0 -101 55 -165q56 -65 150 -65q91 0 146 65t55 169v79q0 98 -56 165q-56 66 -147 66q-90 0 -147 -65q-56 -63 -56 -173v-76zM387 75l766 1226 l81 -52l-767 -1227zM907 199v78q0 139 87 231t220 92t220 -91q88 -93 88 -239v-77q0 -141 -87 -232t-219 -91t-220 91q-89 92 -89 238zM1011 193q0 -102 55 -166t149 -64t148 65q55 66 55 171v78q0 102 -56 166t-148 64q-91 0 -147 -64t-56 -171v-79z" />
<glyph unicode="&#x26;" horiz-adv-x="1357" d="M117 292q0 115 67 216q68 103 236 229l15 11q-94 114 -136 202q-43 91 -43 176q0 165 98 261t264 96q150 0 242 -86q93 -87 93 -221q0 -155 -179 -305l-173 -134l432 -502q98 160 98 359h119q0 -268 -138 -452l215 -250h-155l-136 158q-85 -85 -197 -132t-235 -47 q-225 0 -356 115t-131 306zM245 292q0 -142 97 -227t262 -85q101 0 190 41q92 42 165 118l-438 509l-15 16l-50 -38q-211 -172 -211 -334zM386 1131q0 -132 146 -311l140 108q71 51 114 109q44 59 44 139q0 84 -58 141q-57 56 -156 56q-105 0 -168 -68q-62 -66 -62 -174z " />
<glyph unicode="'" horiz-adv-x="374" d="M128 1067q6 319 6 481h110v-152l-19 -329h-97z" />
<glyph unicode="(" horiz-adv-x="703" d="M150 526q0 231 61 457q59 219 177 405q117 185 250 264l32 -88q-73 -51 -142 -147q-68 -94 -125 -231q-53 -128 -89 -301q-34 -164 -34 -377q0 -221 52 -434q52 -211 140 -367q90 -160 198 -239l-32 -82q-137 83 -253 264q-118 184 -176 402q-59 221 -59 474z" />
<glyph unicode=")" horiz-adv-x="718" d="M36 -532q105 74 196 235q90 159 141 369q52 214 52 457q0 220 -52 431q-51 206 -143 371t-194 237l31 84q134 -83 251 -266q116 -182 176 -404t60 -472q0 -236 -59 -457q-58 -217 -174 -401q-115 -182 -254 -266z" />
<glyph unicode="*" horiz-adv-x="936" d="M31 1086l35 109l358 -132l-5 398h113l-9 -401l349 137l35 -110l-358 -124l240 -317l-92 -67l-230 328l-220 -326l-92 65l234 324z" />
<glyph unicode="+" horiz-adv-x="1245" d="M81 569v121h468v502h130v-502h478v-121h-478v-519h-130v519h-468z" />
<glyph unicode="," horiz-adv-x="422" d="M65 -345q98 131 101 273v167h126v-135q0 -224 -150 -361z" />
<glyph unicode="-" horiz-adv-x="631" d="M53 531v108h516v-108h-516z" />
<glyph unicode="." horiz-adv-x="527" d="M157 -30q0 37 24 64t67 27q42 0 68 -27q25 -26 25 -64t-25 -62q-27 -25 -68 -25q-42 0 -67 25q-24 24 -24 62z" />
<glyph unicode="/" horiz-adv-x="876" d="M32 -242l655 1703h117l-654 -1703h-118z" />
<glyph unicode="0" d="M129 531v281q0 330 123 501q122 170 359 170q234 0 356 -164t127 -485v-287q0 -331 -122 -504q-121 -172 -358 -172q-233 0 -358 169q-124 167 -127 491zM257 532q0 -267 92 -410q91 -142 265 -142q172 0 260 138q88 140 90 408v302q0 269 -87 407t-266 138 q-175 0 -263 -134t-91 -398v-309z" />
<glyph unicode="1" d="M191 1148v121l536 198h21v-1575h-129v1414z" />
<glyph unicode="2" d="M113 1009q0 133 60 241q60 109 170 171q109 62 252 62q217 0 337 -113q121 -114 121 -309q0 -111 -68 -240q-69 -131 -241 -325l-438 -495h825v-109h-983v99l538 610q135 156 185 255q51 100 51 195q0 148 -87 235t-240 87q-158 0 -256 -101t-98 -263h-128z" />
<glyph unicode="3" d="M106 318h129q0 -150 105 -244q104 -94 268 -94q168 0 260 85q94 86 94 248q0 158 -101 241t-297 83h-129v110h133q112 0 194 39q84 40 127 108t43 158q0 151 -85 236t-244 85q-151 0 -248 -89q-96 -88 -96 -234h-130q0 121 62 222t170 156q109 55 242 55q214 0 336 -116 t122 -319q0 -114 -71 -209q-72 -96 -197 -143q148 -41 223 -140t75 -238q0 -201 -132 -324t-351 -123q-139 0 -257 56q-115 55 -181 157q-64 100 -64 234z" />
<glyph unicode="4" d="M72 289v73l727 1099h141v-1063h244v-109h-244v-397h-130v397h-738zM231 398h579v897l-57 -100z" />
<glyph unicode="5" d="M181 305h124q18 -161 109 -243t245 -82q168 0 253 106q86 107 86 304q0 173 -96 281q-97 109 -262 109q-90 0 -159 -23q-70 -23 -144 -90l-102 29l77 765h784v-119h-673l-55 -530q127 86 294 86q213 0 339 -138t126 -367q0 -249 -123 -385q-123 -137 -345 -137 q-205 0 -332 114q-128 115 -146 320z" />
<glyph unicode="6" d="M140 456v129q0 422 192 653q192 232 544 236h32v-113h-14q-280 0 -443 -166q-162 -165 -179 -460q66 90 165 139q97 48 224 48q206 0 329 -142q122 -141 122 -374q0 -153 -57 -276t-164 -191t-243 -68q-226 0 -367 163q-141 164 -141 422zM270 444q0 -205 105 -334 q106 -130 273 -130q151 0 244 120t93 302q0 186 -93 298t-252 112q-123 0 -229 -73q-105 -72 -141 -185v-110z" />
<glyph unicode="7" d="M83 1352v109h1032v-74l-671 -1495h-135l667 1460h-893z" />
<glyph unicode="8" d="M114 308q0 134 79 238t216 151q-116 45 -186 142q-69 96 -69 219q0 194 126 310q125 115 332 115q209 0 334 -116q126 -117 126 -309q0 -122 -71 -219q-72 -98 -187 -142q135 -47 217 -149q82 -103 82 -240q0 -200 -137 -319q-136 -118 -362 -118t-363 117t-137 320z M242 307q0 -149 101 -238t271 -89q169 0 269 88q101 89 101 239q0 147 -105 241q-104 94 -267 94q-162 0 -266 -93t-104 -242zM283 1059q0 -138 91 -222q93 -85 240 -85q144 0 237 85q92 84 92 222q0 134 -93 224t-237 90q-147 0 -239 -87q-91 -87 -91 -227z" />
<glyph unicode="9" d="M109 932q0 156 60 283q60 128 167 198t247 70q236 0 368 -165q131 -164 131 -469v-117q0 -426 -181 -638q-181 -213 -553 -213h-24l2 112h44q282 3 429 159q147 155 154 467q-68 -101 -171 -157t-223 -56q-134 0 -236 69t-158 191q-56 123 -56 266zM236 938 q0 -181 94 -300q95 -121 245 -121q129 0 233 77t146 200v75q0 238 -100 371q-99 132 -269 132q-153 0 -251 -123q-98 -124 -98 -311z" />
<glyph unicode=":" horiz-adv-x="463" d="M137 85q0 38 24 65q23 26 67 26t69 -26q24 -25 24 -65q0 -38 -24 -61q-27 -25 -69 -25t-67 25q-24 24 -24 61zM139 840q0 37 24 64t68 27q41 0 67 -27q25 -26 25 -64t-25 -62q-26 -24 -67 -24q-44 0 -68 24t-24 62z" />
<glyph unicode=";" horiz-adv-x="430" d="M65 -229q98 131 101 273v167h126v-135q0 -224 -150 -361zM139 840q0 37 24 64t68 27q41 0 67 -27q25 -26 25 -64t-25 -62q-26 -24 -67 -24q-44 0 -68 24t-24 62z" />
<glyph unicode="&#x3c;" horiz-adv-x="1128" d="M83 548v104l891 408v-137l-750 -325l750 -323v-136z" />
<glyph unicode="=" horiz-adv-x="1221" d="M160 343v114h900v-114h-900zM160 785v115h900v-115h-900z" />
<glyph unicode="&#x3e;" horiz-adv-x="1143" d="M134 142v133l766 328l-766 326v132l910 -407v-105z" />
<glyph unicode="?" horiz-adv-x="1002" d="M91 1094q1 176 119 283q116 106 298 106q186 0 293 -108q107 -109 107 -294q0 -117 -52 -218t-201 -238q-122 -102 -122 -297h-128q3 125 35 204q31 76 139 183q107 105 137 149q33 47 48 96q16 51 16 119q0 135 -72 212t-200 77t-208 -74q-79 -73 -81 -200h-128z M388 -32q0 36 23 62q22 25 65 25q42 0 66 -25q24 -26 24 -62t-24 -60q-25 -25 -66 -25q-42 0 -65 25t-23 60z" />
<glyph unicode="@" horiz-adv-x="2015" d="M134 408q13 297 133 530q118 230 326 358q206 127 471 127q275 0 465 -115q192 -116 283 -336q92 -221 78 -527q-6 -163 -57 -294q-52 -135 -147 -208q-93 -72 -216 -72q-105 0 -170 55q-66 56 -87 154q-116 -209 -322 -209q-150 0 -225 130q-73 128 -55 352 q16 175 81 313t167 214q104 77 220 77q81 0 145 -23q61 -22 146 -93l-55 -615q-10 -124 32 -194q42 -69 136 -69q134 0 216 130q81 129 92 352q21 435 -166 657q-186 220 -565 220q-229 0 -410 -113q-185 -115 -289 -322q-105 -208 -118 -479q-13 -270 71 -478 q84 -206 256 -318q171 -111 407 -111q99 0 195 24q97 24 160 61l34 -86q-65 -43 -171 -69q-109 -27 -223 -27q-271 0 -464 121q-194 122 -290 349q-96 228 -84 534zM726 200q12 -107 60 -166t128 -59q198 0 294 275l48 556q-71 53 -170 53q-121 0 -207 -95 q-88 -97 -128 -263q-41 -171 -25 -301z" />
<glyph unicode="A" horiz-adv-x="1378" d="M32 -108l594 1569h126l594 -1569h-138l-163 440h-712l-162 -440h-139zM374 445h630l-315 855z" />
<glyph unicode="B" horiz-adv-x="1352" d="M199 -108v1569h463q251 0 382 -104q130 -103 130 -306q0 -123 -65 -212q-65 -88 -182 -128q136 -30 220 -135t84 -242q0 -208 -134 -325q-133 -117 -374 -117h-524zM331 4h397q172 0 271 87q100 88 100 241q0 146 -96 230t-264 84h-408v-642zM331 758h362q165 3 257 78 q91 75 91 218q0 150 -94 222q-95 72 -285 72h-331v-590z" />
<glyph unicode="C" horiz-adv-x="1433" d="M142 572v203q0 210 73 371t210 249t317 88q253 0 398 -136q146 -137 170 -377h-134q-49 400 -434 400q-215 0 -340 -159q-127 -162 -127 -442v-191q0 -271 123 -433t334 -162q208 0 314 100q104 98 130 299h134q-27 -248 -177 -380q-149 -131 -401 -131q-174 0 -309 87 t-208 247q-71 156 -73 367z" />
<glyph unicode="D" horiz-adv-x="1445" d="M199 -108v1569h438q191 0 346 -88q153 -87 239 -251q85 -163 85 -373v-144q0 -210 -85 -373q-86 -164 -239 -252q-154 -88 -355 -88h-429zM331 4h298q247 0 397 165t150 445v138q0 272 -148 433q-148 162 -389 163h-308v-1344z" />
<glyph unicode="E" horiz-adv-x="1255" d="M199 -108v1569h970v-113h-838v-591h734v-112h-734v-641h843v-112h-975z" />
<glyph unicode="F" horiz-adv-x="1242" d="M199 -108v1569h972v-113h-840v-610h732v-113h-732v-733h-132z" />
<glyph unicode="G" horiz-adv-x="1509" d="M157 580v198q0 328 164 516q165 189 443 189q245 0 390 -123q148 -125 176 -340h-132q-30 172 -141 261q-112 89 -292 89q-219 0 -348 -156q-128 -155 -128 -441v-185q0 -182 60 -317q62 -138 175 -213q114 -75 261 -75q172 0 295 54q81 37 119 82v406h-422v112h554v-559 q-68 -96 -216 -152q-146 -55 -330 -55t-327 88q-144 89 -222 250q-77 161 -79 371z" />
<glyph unicode="H" horiz-adv-x="1561" d="M199 -108v1569h132v-704h897v704h133v-1569h-133v753h-897v-753h-132z" />
<glyph unicode="I" horiz-adv-x="587" d="M227 -108v1569h133v-1569h-133z" />
<glyph unicode="J" horiz-adv-x="1214" d="M77 324h132q0 -170 90 -255q91 -86 252 -86q149 0 244 99t96 270v1109h134v-1102q0 -223 -129 -355q-130 -133 -345 -133q-230 0 -352 119t-122 334z" />
<glyph unicode="K" horiz-adv-x="1392" d="M199 -108v1569h132v-846l804 846h167l-657 -698l708 -871h-162l-639 779l-221 -217v-562h-132z" />
<glyph unicode="L" horiz-adv-x="1162" d="M199 -108v1569h133v-1457h775v-112h-908z" />
<glyph unicode="M" horiz-adv-x="1909" d="M199 -108v1569h175l579 -1384l581 1384h177v-1569h-133v683l11 701l-585 -1384h-102l-581 1379l10 -691v-688h-132z" />
<glyph unicode="N" horiz-adv-x="1567" d="M199 -108v1569h133l903 -1343v1343h132v-1569h-133l-902 1343v-1343h-133z" />
<glyph unicode="O" horiz-adv-x="1494" d="M134 598v162q0 214 77 380q77 167 215 254q140 89 320 89q181 0 319 -87q141 -89 215 -247q75 -161 78 -370v-187q0 -218 -75 -381q-75 -164 -214 -252t-321 -88q-274 0 -444 197t-170 530zM267 592q0 -278 130 -443q129 -163 351 -163q225 0 351 161q126 160 126 449 v166q0 283 -128 444t-351 161q-218 0 -349 -161q-130 -160 -130 -450v-164z" />
<glyph unicode="P" horiz-adv-x="1358" d="M199 -108v1569h534q246 0 386 -124q142 -125 142 -344q0 -221 -136 -341q-137 -120 -395 -120h-399v-640h-132zM331 644h402q194 0 294 91q101 92 101 255q0 164 -100 260q-101 96 -286 98h-411v-704z" />
<glyph unicode="Q" horiz-adv-x="1494" d="M130 584v176q0 216 76 380q77 167 215 254q140 89 320 89q183 0 322 -88q141 -89 215 -253q75 -165 75 -381v-169q0 -226 -79 -391q-80 -167 -225 -252l286 -249l-92 -82l-321 278q-87 -25 -179 -25q-180 0 -319 88t-216 251q-76 162 -78 374zM263 592q0 -280 129 -443 t351 -163q224 0 351 160q128 161 128 449v167q0 284 -129 444q-129 161 -352 161q-217 0 -348 -161q-130 -160 -130 -450v-164z" />
<glyph unicode="R" horiz-adv-x="1401" d="M195 -108v1569h510q252 0 392 -121q142 -122 142 -341q0 -150 -89 -266q-88 -115 -237 -160l392 -666v-15h-141l-380 654h-455v-654h-134zM329 659h406q166 0 269 95q101 94 101 245q0 167 -105 258q-104 91 -297 91h-374v-689z" />
<glyph unicode="S" horiz-adv-x="1307" d="M95 341h132q0 -166 124 -262q125 -96 330 -96q183 0 294 81t111 214q0 131 -91 206q-93 76 -336 145q-244 69 -355 149q-160 115 -160 300q0 180 149 293q148 112 378 112q157 0 280 -60q124 -60 191 -168q68 -109 68 -241h-133q0 160 -110 258t-296 98q-181 0 -286 -80 q-107 -81 -107 -210q0 -120 96 -195q98 -77 307 -133q210 -56 320 -120q108 -62 164 -148q55 -85 55 -204q0 -185 -148 -297t-391 -112q-165 0 -304 59q-137 58 -210 166q-72 106 -72 245z" />
<glyph unicode="T" horiz-adv-x="1317" d="M56 1348v113h1208v-113h-538v-1456h-133v1456h-537z" />
<glyph unicode="U" horiz-adv-x="1450" d="M175 380v1081h131v-1061q0 -198 113 -308q112 -109 308 -109q193 0 306 110t113 306v1062h134v-1071q-2 -160 -70 -276q-69 -117 -195 -180t-288 -63q-249 0 -398 135q-148 135 -154 374z" />
<glyph unicode="V" horiz-adv-x="1361" d="M34 1461h144l493 -1375l9 -33l10 33l493 1375h146l-585 -1569h-126z" />
<glyph unicode="W" horiz-adv-x="1979" d="M66 1461h135l287 -1145l49 -244l59 233l341 1156h119l337 -1156l58 -235l51 246l284 1145h136l-402 -1569h-127l-356 1228l-40 155l-39 -155l-364 -1228h-127z" />
<glyph unicode="X" horiz-adv-x="1350" d="M60 -108l536 795l-520 774h158l442 -663l441 663h159l-519 -774l535 -795h-159l-457 686l-460 -686h-156z" />
<glyph unicode="Y" horiz-adv-x="1321" d="M26 1461h157l476 -856l479 856h153l-567 -978v-591h-132v591z" />
<glyph unicode="Z" horiz-adv-x="1320" d="M97 -7l931 1355h-903v113h1067v-94l-935 -1363h970v-112h-1130v101z" />
<glyph unicode="[" horiz-adv-x="528" d="M175 -444v2130h357v-110h-227v-1910h227v-110h-357z" />
<glyph unicode="\" horiz-adv-x="869" d="M52 1461h126l655 -1703h-126z" />
<glyph unicode="]" horiz-adv-x="528" d="M0 -334h227v1910h-227v110h357v-2130h-357v110z" />
<glyph unicode="^" horiz-adv-x="918" d="M83 678l322 783h97l322 -783h-126l-244 613l-246 -613h-125z" />
<glyph unicode="_" horiz-adv-x="952" d="M1 -108h950v-108h-950v108z" />
<glyph unicode="`" horiz-adv-x="630" d="M111 1535h155l206 -301h-118z" />
<glyph unicode="a" horiz-adv-x="1182" d="M108 201q0 171 141 270t396 99h234v133q0 125 -78 197q-77 71 -224 71q-135 0 -223 -69q-89 -69 -89 -166l-129 1q0 139 129 241t318 102q196 0 308 -97q113 -98 116 -272v-553q0 -169 36 -253v-13h-138q-19 54 -25 163q-67 -87 -173 -136q-105 -48 -223 -48 q-169 0 -272 93q-104 93 -104 237zM237 212q0 -99 73 -163t189 -64q132 0 232 62q101 63 148 168v256h-231q-193 -1 -302 -70t-109 -189z" />
<glyph unicode="b" d="M167 -108v1656h129v-658q123 190 364 190q207 0 327 -158t120 -439v-19q0 -271 -121 -433q-120 -160 -324 -160q-243 0 -369 181l-5 -160h-121zM296 203q97 -220 342 -220q160 0 250 126t90 377q0 230 -90 356t-252 126q-124 0 -210 -61t-130 -179v-525z" />
<glyph unicode="c" horiz-adv-x="1137" d="M102 459v39q0 173 60 305q61 134 172 205q112 72 264 72q192 0 316 -114q125 -114 134 -301h-125q-8 137 -98 221t-227 84q-175 0 -271 -126t-96 -353v-39q0 -222 96 -347t272 -125q135 0 226 76q90 76 98 196h125q-6 -109 -67 -195q-62 -88 -163 -137t-219 -49 q-229 0 -363 159q-134 160 -134 429z" />
<glyph unicode="d" horiz-adv-x="1227" d="M117 471v15q0 273 121 433q122 161 329 161q235 0 360 -186v654h128v-1656h-120l-6 155q-124 -176 -364 -176q-202 0 -325 162t-123 438zM247 464q0 -224 89 -352q90 -129 253 -129q237 0 338 210v548q-101 227 -337 227q-161 0 -253 -128q-90 -125 -90 -376z" />
<glyph unicode="e" horiz-adv-x="1140" d="M97 442v46q0 167 65 303q65 135 182 212q118 77 252 77q213 0 337 -145q125 -146 125 -396v-72h-833v-25q0 -198 114 -330t286 -132q105 0 183 37t144 121l81 -61q-143 -206 -413 -206q-150 0 -269 73q-120 74 -187 204q-67 131 -67 294zM230 577h699v13q-6 169 -96 274 q-91 106 -237 106t-245 -107q-100 -108 -121 -286z" />
<glyph unicode="f" horiz-adv-x="731" d="M68 953v106h193v140q0 181 91 276q92 96 253 96q71 0 138 -19l-10 -108q-56 14 -118 14q-107 0 -166 -67t-59 -188v-144h279v-106h-279v-1061h-129v1061h-193z" />
<glyph unicode="g" horiz-adv-x="1224" d="M117 469v17q0 274 121 434t329 160q237 0 362 -190l7 169h120v-1143q0 -225 -126 -357t-341 -132q-120 0 -233 55q-110 54 -173 145l72 77q137 -168 325 -168q162 0 252 96q91 97 94 265v146q-124 -172 -361 -172q-202 0 -325 162t-123 436zM247 464q0 -224 89 -352 q90 -129 253 -129q238 0 337 213v542q-45 113 -130 171q-86 59 -206 59q-161 0 -253 -128q-90 -125 -90 -376z" />
<glyph unicode="h" horiz-adv-x="1211" d="M168 -108v1656h129v-687q63 105 162 162t217 57q188 0 279 -105t93 -318v-765h-128v767q-1 154 -67 232q-65 77 -208 77q-121 0 -212 -75t-136 -202v-799h-129z" />
<glyph unicode="i" horiz-adv-x="495" d="M160 1396q0 36 24 62q24 25 65 25t65 -25q24 -26 24 -62q0 -38 -24 -62t-65 -24t-65 24t-24 62zM183 -108v1167h130v-1167h-130z" />
<glyph unicode="j" horiz-adv-x="503" d="M-112 -558l2 107q52 -15 97 -15q192 0 192 221v1304h128v-1306q0 -163 -77 -247q-78 -85 -229 -85q-57 0 -113 21zM157 1396q0 36 23 62q22 25 64 25q41 0 65 -25q24 -26 24 -62q0 -38 -24 -62t-65 -24q-42 0 -64 24q-23 25 -23 62z" />
<glyph unicode="k" horiz-adv-x="1080" d="M168 -108v1656h129v-1060l122 132l447 439h162l-495 -492l538 -675h-154l-472 588l-148 -143v-445h-129z" />
<glyph unicode="l" horiz-adv-x="495" d="M183 -108v1656h130v-1656h-130z" />
<glyph unicode="m" horiz-adv-x="1956" d="M162 -108v1167h124l4 -190q65 107 161 158q98 53 216 53q276 0 351 -226q64 110 167 167q106 59 230 59q375 0 383 -410v-778h-129v769q-2 156 -68 232q-66 75 -215 75q-140 -2 -236 -90t-106 -214v-772h-130v778q-1 150 -71 224q-69 74 -213 74q-122 0 -210 -70 q-87 -69 -129 -206v-800h-129z" />
<glyph unicode="n" horiz-adv-x="1212" d="M168 -108v1167h123l5 -200q66 108 163 165q96 56 217 56q188 0 279 -105t93 -318v-765h-128v767q-1 154 -67 232q-65 77 -208 77q-121 0 -212 -75t-136 -202v-799h-129z" />
<glyph unicode="o" horiz-adv-x="1235" d="M97 467v25q0 168 65 304q64 134 184 209t270 75q234 0 378 -163t144 -433v-27q0 -169 -65 -305q-64 -134 -183 -208q-118 -73 -271 -73q-232 0 -377 163t-145 433zM226 457q0 -208 109 -343q108 -134 284 -134q175 0 283 134t108 353v25q0 133 -50 245q-50 113 -139 172 q-91 61 -205 61q-172 0 -281 -135q-109 -134 -109 -354v-24z" />
<glyph unicode="p" d="M167 -557v1616h120l6 -165q126 186 366 186q209 0 328 -158t119 -440v-18q0 -271 -121 -433q-120 -160 -323 -160q-238 0 -366 168v-596h-129zM296 185q47 -100 132 -152q86 -53 203 -53q164 0 255 130t91 376q0 223 -92 353q-91 129 -255 129q-118 0 -204 -57 q-85 -56 -130 -167v-559z" />
<glyph unicode="q" horiz-adv-x="1230" d="M117 469v17q0 274 121 434t331 160q236 0 359 -180l7 159h120v-1616h-129v594q-128 -166 -359 -166q-204 0 -327 162t-123 436zM247 464q0 -228 91 -356t252 -128q232 0 336 201v571q-50 105 -134 161q-86 57 -199 57q-163 0 -255 -129q-91 -128 -91 -377z" />
<glyph unicode="r" horiz-adv-x="742" d="M168 -108v1167h126l3 -185q102 206 328 206q53 0 86 -14l-4 -118q-43 8 -87 8q-122 0 -205 -67q-81 -65 -118 -196v-801h-129z" />
<glyph unicode="s" horiz-adv-x="1117" d="M109 219h130q8 -113 94 -176q87 -63 233 -63q135 0 218 59q82 58 82 150q0 95 -77 154q-75 58 -232 91q-155 33 -240 75t-128 105q-41 60 -41 148q0 138 115 228t295 90q193 0 313 -97q118 -96 118 -251h-129q0 103 -85 170q-86 68 -217 68q-128 0 -204 -57 q-77 -57 -77 -146q0 -88 64 -136q64 -47 234 -88q169 -40 254 -85q85 -44 126 -109q41 -64 41 -154q0 -148 -119 -236t-311 -88q-204 0 -330 98q-127 99 -127 250z" />
<glyph unicode="t" horiz-adv-x="709" d="M25 953v106h215v298h129v-298h241v-106h-241v-778q0 -97 35 -144t117 -47q29 0 104 11l5 -106q-51 -18 -138 -18q-132 0 -192 77t-60 227v778h-215z" />
<glyph unicode="u" horiz-adv-x="1212" d="M164 300v759h128v-743q0 -333 270 -333q279 0 354 232v844h129v-1167h-124l-3 148q-115 -169 -371 -169q-187 0 -284 108t-99 321z" />
<glyph unicode="v" horiz-adv-x="1061" d="M41 1059h133l358 -989l354 989h133l-436 -1167h-105z" />
<glyph unicode="w" horiz-adv-x="1664" d="M68 1059h132l247 -899l20 -99l25 105l281 893h109l278 -885l30 -123l25 113l239 895h134l-340 -1167h-110l-299 925l-14 64l-15 -65l-294 -924h-110z" />
<glyph unicode="x" horiz-adv-x="1073" d="M52 -108l412 594l-396 573h152l314 -474l315 474h154l-396 -573l413 -594h-153l-331 494l-332 -494h-152z" />
<glyph unicode="y" horiz-adv-x="1048" d="M35 1059h140l363 -982l341 982h139l-499 -1365l-26 -61q-96 -212 -295 -212q-48 0 -100 15l-1 107l67 -7q94 0 153 47q60 47 100 161l58 158z" />
<glyph unicode="z" horiz-adv-x="1073" d="M93 -13l708 960h-685v112h847v-96l-710 -962h758v-109h-918v95z" />
<glyph unicode="{" horiz-adv-x="728" d="M73 477v112q249 0 249 282v246q2 200 92 320q91 120 273 176l28 -84q-264 -84 -264 -422v-230q0 -265 -198 -344q198 -83 198 -342v-246q5 -315 267 -402l-31 -86q-182 54 -273 175q-92 122 -92 323v239q0 283 -249 283z" />
<glyph unicode="|" horiz-adv-x="487" d="M191 -399v1860h110v-1860h-110z" />
<glyph unicode="}" horiz-adv-x="728" d="M10 -457q261 87 266 402v241q0 273 208 346q-208 73 -208 344v230q0 340 -263 423l28 84q184 -55 274 -178t90 -324v-240q0 -282 249 -282v-112q-249 0 -249 -283v-239q0 -201 -92 -323q-91 -121 -272 -175z" />
<glyph unicode="~" horiz-adv-x="1511" d="M157 376q0 161 87 263t231 102q77 0 151 -34q73 -33 172 -122q72 -67 124 -95q53 -28 111 -28q94 0 150 68t56 186h113q0 -162 -90 -265t-229 -103q-77 0 -145 30q-72 32 -166 116q-97 86 -145 109q-47 22 -102 22q-94 0 -149 -64q-54 -63 -54 -183z" />
<glyph unicode="&#xa1;" horiz-adv-x="487" d="M150 994q0 34 25 61q24 25 65 25t65 -25t24 -61t-24 -62q-24 -25 -65 -25t-65 25q-25 27 -25 62zM181 -495l7 1131h119l7 -1131h-133z" />
<glyph unicode="&#xa2;" horiz-adv-x="1202" d="M128 459v39q0 240 114 396q114 157 315 182v237h129v-236q166 -16 275 -130q108 -112 114 -282h-124q-9 137 -99 221t-227 84q-175 0 -271 -126q-97 -127 -97 -353v-39q0 -221 97 -347q96 -125 272 -125q134 0 224 74t101 198h124q-9 -150 -120 -255t-269 -123v-246h-129 v247q-200 24 -314 179q-115 156 -115 405z" />
<glyph unicode="&#xa3;" horiz-adv-x="1260" d="M101 588v112h197l-9 312q0 218 119 344q120 127 319 127q195 0 309 -114t114 -304h-132q0 145 -81 225q-82 80 -220 80q-135 0 -214 -95q-80 -97 -80 -263l9 -312h371v-112h-368l10 -299q1 -187 -69 -285h803v-112h-1075v112h106q56 14 83 115q21 81 20 169l-10 300h-202 z" />
<glyph unicode="&#xa4;" horiz-adv-x="1596" d="M118 -43l171 173q-134 182 -134 418q0 246 143 429l-180 184l91 94l180 -184q179 152 409 152q229 0 409 -154l182 187l93 -95l-185 -189q141 -183 141 -424q0 -231 -132 -414l176 -177l-93 -94l-170 173q-84 -78 -191 -121q-109 -44 -230 -44q-243 0 -422 164l-167 -171 zM277 548q0 -150 69 -279q68 -128 192 -204q122 -75 260 -75q137 0 259 76t190 204q69 129 69 278q0 148 -71 278q-70 129 -190 202q-119 73 -257 73q-140 0 -259 -73q-121 -74 -191 -202q-71 -130 -71 -278z" />
<glyph unicode="&#xa5;" horiz-adv-x="1317" d="M47 1461h154l453 -778l454 778h155l-489 -809h395v-95h-450v-220h450v-96h-450v-349h-132v349h-447v96h447v220h-447v95h394z" />
<glyph unicode="&#xa6;" horiz-adv-x="478" d="M171 -399v831h130v-831h-130zM171 645v816h130v-816h-130z" />
<glyph unicode="&#xa7;" horiz-adv-x="1335" d="M110 -177l130 2q0 -168 111 -262q112 -95 303 -95q171 0 273 75q101 74 101 197q0 84 -37 134q-37 51 -123 93q-89 44 -277 94q-189 51 -285 107q-93 54 -142 133q-47 75 -47 185q0 109 62 184q63 76 178 112q-92 51 -142 126q-50 76 -50 192q0 173 139 278t368 105 q242 0 376 -122t134 -342h-129q0 157 -103 256q-102 98 -278 98q-177 0 -278 -74q-100 -73 -100 -198q0 -85 34 -135q36 -53 115 -92q83 -41 253 -90q212 -54 313 -109t150 -133q48 -77 48 -185q0 -107 -67 -183q-66 -75 -184 -111q96 -50 150 -127q52 -74 52 -193 q0 -179 -135 -281q-136 -103 -369 -103q-119 0 -222 30t-177 92q-145 123 -145 342zM246 488q0 -91 38 -141q40 -52 125 -92q95 -44 306 -102l99 -30q120 13 192 76q71 62 71 155q0 105 -73 169q-72 63 -258 123l-256 77q-119 -14 -181 -76q-63 -63 -63 -159z" />
<glyph unicode="&#xa8;" horiz-adv-x="949" d="M154 1397q0 36 23 62q22 25 65 25q42 0 66 -25t24 -62q0 -35 -24 -60t-66 -25q-43 0 -65 25q-23 26 -23 60zM625 1396q0 36 24 62q24 25 64 25q43 0 67 -25q23 -24 23 -62q0 -36 -23 -60q-24 -25 -67 -25q-40 0 -64 25q-24 26 -24 60z" />
<glyph unicode="&#xa9;" horiz-adv-x="1764" d="M116 678q0 219 100 404t280 294q177 107 385 107q207 0 384 -107q179 -108 279 -294q101 -187 101 -404q0 -214 -97 -398q-98 -184 -276 -297q-179 -113 -391 -113q-213 0 -391 111t-276 297q-98 187 -98 400zM207 678q0 -192 88 -356q89 -166 246 -262q158 -97 340 -97 t336 95q155 95 246 262q90 165 90 358q0 191 -90 356q-89 163 -246 260q-154 95 -336 95q-183 0 -343 -98q-157 -96 -245 -262q-86 -162 -86 -351zM511 631v97q0 188 99 303t260 115q160 0 250 -87q89 -86 89 -250h-107q0 241 -232 241q-114 0 -183 -87t-69 -240v-98 q0 -144 68 -232t184 -88q114 0 173 57q58 57 58 185h107q0 -164 -88 -251q-90 -88 -250 -88q-161 0 -260 114t-99 309z" />
<glyph unicode="&#xab;" horiz-adv-x="1005" d="M133 460v21l318 409h113l-298 -420l298 -418h-113zM466 460v21l318 409h113l-298 -420l298 -418h-113z" />
<glyph unicode="&#xad;" horiz-adv-x="631" d="M53 531v108h516v-108h-516z" />
<glyph unicode="&#xae;" horiz-adv-x="1770" d="M110 678q0 217 101 404q101 186 279 294q177 107 385 107t385 -107q180 -109 280 -294t100 -404q0 -213 -98 -400q-98 -186 -276 -297t-391 -111t-391 111q-176 110 -276 297q-98 184 -98 400zM201 678q0 -191 91 -359q88 -163 247 -261q154 -95 336 -95t338 95 q158 96 246 262q89 167 89 358q0 188 -88 353q-87 163 -244 261q-155 97 -341 97q-182 0 -338 -95t-246 -260t-90 -356zM595 239v903h279q158 0 243 -66t85 -201q0 -144 -152 -213q78 -27 108 -86q30 -58 30 -141q0 -86 4 -118q4 -35 15 -61v-17h-111q-15 39 -15 196 q0 96 -41 135q-42 40 -137 40h-202v-371h-106zM701 708h195q87 0 144 45q56 44 56 121q0 91 -47 130q-47 40 -161 41h-187v-337z" />
<glyph unicode="&#xaf;" horiz-adv-x="942" d="M114 1357v104h722v-104h-722z" />
<glyph unicode="&#xb0;" horiz-adv-x="834" d="M154 1214q0 111 79 190t186 79t183 -79q77 -80 77 -190q0 -113 -76 -189q-77 -77 -184 -77q-108 0 -187 77q-78 77 -78 189zM251 1214q0 -72 48 -120t120 -48q71 0 117 48q46 47 46 120q0 76 -46 123q-47 49 -117 49t-119 -49t-49 -123z" />
<glyph unicode="&#xb1;" horiz-adv-x="1169" d="M91 676v109h446v473h119v-473h422v-109h-422v-472h-119v472h-446zM138 1h900v-109h-900v109z" />
<glyph unicode="&#xb4;" horiz-adv-x="620" d="M134 1234l205 301h157l-249 -301h-113z" />
<glyph unicode="&#xb7;" horiz-adv-x="542" d="M175 665q0 37 24 63t67 26q42 0 68 -26q25 -25 25 -63t-25 -63t-68 -25t-67 25q-24 26 -24 63z" />
<glyph unicode="&#xbb;" horiz-adv-x="999" d="M124 67l297 418l-297 425h115l318 -414v-21l-318 -408h-115zM467 67l298 418l-298 425h115l318 -414v-21l-318 -408h-115z" />
<glyph unicode="&#xd7;" horiz-adv-x="1155" d="M101 85l385 393l-369 378l84 86l369 -377l370 377l85 -86l-370 -378l386 -393l-85 -85l-386 393l-385 -393z" />
<glyph unicode="&#xf7;" horiz-adv-x="1254" d="M77 587v124h1076v-124h-1076zM533 206q0 38 24 64t67 26q42 0 68 -26q25 -25 25 -64q0 -38 -25 -63t-68 -25t-67 25t-24 63zM533 1065q0 37 24 63t67 26q42 0 68 -26q25 -25 25 -63t-25 -63t-68 -25t-67 25q-24 26 -24 63z" />
<glyph unicode="&#x2c6;" horiz-adv-x="948" d="M173 1248v15l256 274h82l260 -278v-11h-120l-181 197l-180 -197h-117z" />
<glyph unicode="&#x2dc;" horiz-adv-x="960" d="M114 1258q0 99 59 164q58 64 151 64q52 0 89 -18q35 -17 69 -41q33 -23 65 -41q33 -18 77 -18q51 0 85 35q35 37 35 96l96 -6q0 -105 -61 -167t-149 -62q-82 0 -161 59t-140 59q-49 0 -84 -33q-34 -33 -34 -94z" />
<glyph unicode="&#x2000;" horiz-adv-x="850" />
<glyph unicode="&#x2001;" horiz-adv-x="1700" />
<glyph unicode="&#x2002;" horiz-adv-x="850" />
<glyph unicode="&#x2003;" horiz-adv-x="1700" />
<glyph unicode="&#x2004;" horiz-adv-x="566" />
<glyph unicode="&#x2005;" horiz-adv-x="425" />
<glyph unicode="&#x2006;" horiz-adv-x="283" />
<glyph unicode="&#x2007;" horiz-adv-x="283" />
<glyph unicode="&#x2008;" horiz-adv-x="212" />
<glyph unicode="&#x2009;" horiz-adv-x="340" />
<glyph unicode="&#x200a;" horiz-adv-x="94" />
<glyph unicode="&#x2010;" horiz-adv-x="631" d="M53 531v108h516v-108h-516z" />
<glyph unicode="&#x2011;" horiz-adv-x="631" d="M53 531v108h516v-108h-516z" />
<glyph unicode="&#x2012;" horiz-adv-x="631" d="M53 531v108h516v-108h-516z" />
<glyph unicode="&#x2013;" horiz-adv-x="1139" d="M53 531v108h1024v-108h-1024z" />
<glyph unicode="&#x2014;" horiz-adv-x="2163" d="M53 531v108h2048v-108h-2048z" />
<glyph unicode="&#x202f;" horiz-adv-x="340" />
<glyph unicode="&#x205f;" horiz-adv-x="425" />
<glyph unicode="&#x25fc;" horiz-adv-x="1059" d="M0 0v1060h1060v-1060h-1060z" />
</font>
</defs>
</svg>
