<?xml version="1.0" standalone="no"?>
<!DOCTYPE svg PUBLIC "-//W3C//DTD SVG 1.1//EN" "http://www.w3.org/Graphics/SVG/1.1/DTD/svg11.dtd" >
<svg xmlns="http://www.w3.org/2000/svg">
<metadata></metadata>
<defs>
<font id="iransanswebbold" horiz-adv-x="1266" >
<font-face units-per-em="2048" ascent="1638" descent="-410" />
<missing-glyph horiz-adv-x="489" />
<glyph horiz-adv-x="0" />
<glyph unicode="&#xd;" horiz-adv-x="536" />
<glyph unicode=" "  horiz-adv-x="489" />
<glyph unicode="&#x09;" horiz-adv-x="489" />
<glyph unicode="&#xa0;" horiz-adv-x="489" />
<glyph unicode="!" horiz-adv-x="515" d="M63 61l198 197l198 -197l-198 -198zM127 1027v373h247v-373l-32 -673h-171z" />
<glyph unicode="&#x22;" horiz-adv-x="707" d="M69 956v592h218v-149l-43 -443h-175zM420 956v592h217v-149l-42 -443h-175z" />
<glyph unicode="#" horiz-adv-x="1315" d="M69 334v185h277l54 306h-250v188h284l78 448h196l-78 -448h209l78 448h198l-79 -448h236v-188h-269l-55 -306h242v-185h-274l-77 -442h-198l78 442h-208l-77 -442h-198l77 442h-244zM543 519h209l53 306h-209z" />
<glyph unicode="$" d="M99 385h311q0 -129 61 -197q61 -69 175 -69q94 0 150 51q55 51 55 135q0 89 -49 141q-48 50 -166 96q-123 47 -203 88q-82 42 -146 101q-60 56 -95 133q-34 75 -34 181q0 182 117 299t309 136v231h173v-235q191 -27 298 -158q108 -132 108 -342h-312q0 130 -53 193 q-54 64 -143 64t-136 -50q-49 -52 -49 -139q0 -81 47 -131q44 -47 177 -101q127 -52 212 -98q82 -45 139 -103q59 -60 88 -132q30 -73 30 -172q0 -183 -114 -297t-315 -135v-214h-171v213q-222 24 -343 157t-121 354z" />
<glyph unicode="%" horiz-adv-x="1629" d="M102 1084v76q0 144 94 234t246 90q153 0 248 -89q94 -88 94 -241v-77q0 -146 -94 -234q-95 -89 -246 -89q-152 0 -247 89t-95 241zM309 1077q0 -66 37 -104q38 -40 98 -40q62 0 96 40q35 41 35 107v80q0 63 -35 104q-34 40 -98 40q-58 0 -96 -39q-37 -38 -37 -109v-79z M354 92l766 1226l152 -82l-766 -1226zM853 198v79q0 146 95 235q94 88 245 88q152 0 248 -88q94 -87 94 -241v-78q0 -146 -92 -234t-248 -88t-248 89q-94 91 -94 238zM1060 193q0 -60 38 -101q39 -42 97 -42q132 0 132 145v82q0 64 -37 104q-36 39 -97 39t-97 -39t-36 -108 v-80z" />
<glyph unicode="&#x26;" horiz-adv-x="1448" d="M77 314q0 110 61 202q63 95 224 206q-70 92 -111 176q-40 81 -40 172q0 183 116 299q114 114 312 114q177 0 288 -104q113 -105 113 -262q0 -185 -190 -330l-120 -87l270 -315q64 125 64 276h265q0 -307 -141 -496l235 -273h-354l-81 93q-174 -114 -399 -114 q-234 0 -372 122q-140 123 -140 321zM389 332q0 -94 60 -152q61 -59 156 -59q113 0 212 62l-309 358l-23 -16q-96 -83 -96 -193zM491 1075q0 -82 94 -204l84 55q62 40 87 80q24 39 24 92q0 52 -40 94q-39 40 -102 40q-67 0 -107 -43t-40 -114z" />
<glyph unicode="'" horiz-adv-x="357" d="M68 954v594h229v-159l-32 -435h-197z" />
<glyph unicode="(" horiz-adv-x="900" d="M55 621v33q6 206 80 404q72 193 198 369v-1q55 77 126 157t163 162l175 -220l-9.5 -9.5l-14.5 -14.5l-16 -16q-16 -16 -60 -64q-12 -14 -36.5 -41.5t-33.5 -37.5q-30 -33 -68 -88q-38 -52 -74 -117q-41 -75 -68 -145q-31 -83 -53 -167q-23 -89 -26 -180q0 -228 122 -466 q121 -236 363 -463l-189 -211q-579 541 -579 1116z" />
<glyph unicode=")" horiz-adv-x="1007" d="M110 -284q244 229 364 463q122 238 122 466q-3 91 -26 180q-23 88 -54 167t-68 145q-39 70 -73 117q-29 41 -69 88q-35 41 -70 79q-44 48 -60 64q-31 31 -39 40l176 220q87 -78 162 -162q73 -83 125 -157v1q126 -174 199 -369q74 -198 80 -404v-33q0 -575 -579 -1116z " />
<glyph unicode="*" horiz-adv-x="999" d="M29 1025l64 195l335 -135l-22 376h212l-22 -383l326 132l65 -197l-346 -96l226 -287l-171 -122l-196 316l-194 -305l-172 117l234 293z" />
<glyph unicode="+" horiz-adv-x="1204" d="M61 490v281h390v421h297v-421h389v-281h-389v-440h-297v440h-390z" />
<glyph unicode="," horiz-adv-x="538" d="M37 -416l40 70q71 131 73 262v242h264l-1 -216q-1 -118 -61 -242q-58 -121 -152 -201z" />
<glyph unicode="-" horiz-adv-x="855" d="M118 439v251h608v-251h-608z" />
<glyph unicode="." horiz-adv-x="641" d="M136 45q0 74 50 121q49 46 126 46t126 -46q50 -47 50 -121q0 -72 -49 -118t-127 -46q-77 0 -126 46q-50 47 -50 118z" />
<glyph unicode="/" horiz-adv-x="824" d="M-14 -242l578 1703h231l-577 -1703h-232z" />
<glyph unicode="0" d="M102 525v289q0 327 137 499q136 170 392 170q257 0 393 -168q136 -167 139 -485v-289q0 -325 -135 -498q-135 -172 -394 -172q-256 0 -392 169q-137 170 -140 485zM414 500q0 -193 52 -285q52 -93 168 -93q115 0 165 89t52 274v373q0 197 -53 284q-54 89 -167 89 q-109 0 -162 -85q-52 -83 -55 -264v-382z" />
<glyph unicode="1" d="M180 978v253l650 233h34v-1572h-312v1201z" />
<glyph unicode="2" d="M76 968q0 143 68 262q67 118 193 186q124 67 284 67q245 0 377 -116q134 -117 134 -329q0 -115 -61 -237t-206 -282l-357 -376h674v-251h-1075v214l507 540q107 119 155 200q50 84 50 162q0 103 -53 164q-52 60 -151 60q-105 0 -166 -73t-61 -191h-312z" />
<glyph unicode="3" d="M69 322h311q0 -88 67 -144t163 -56q110 0 174 59q63 59 63 156q0 235 -258 235h-165v243h165q119 0 176 59q58 60 58 157q0 95 -57 148q-58 53 -156 53q-91 0 -150 -49q-60 -49 -60 -128h-312q0 123 66 221q65 96 186 152q119 55 263 55q249 0 389 -119 q142 -121 142 -328q0 -109 -66 -199t-172 -139q132 -46 197 -142q65 -95 65 -224q0 -210 -152 -335q-153 -126 -403 -126q-236 0 -385 124t-149 327z" />
<glyph unicode="4" d="M60 428l653 1033h315v-978h179v-251h-179v-340h-311v340h-644zM370 483h347v554l-21 -35z" />
<glyph unicode="5" d="M113 329h308q11 -99 69 -153q59 -54 154 -54q104 0 162 76t58 215q0 135 -66 205q-66 71 -187 71q-110 0 -180 -59l-30 -27l-248 61l91 797h879v-259h-624l-39 -337q110 58 236 58q225 0 352 -139q126 -138 126 -389q0 -152 -64 -271q-66 -123 -183 -187 q-120 -66 -282 -66q-143 0 -264 57q-123 58 -193 162q-70 105 -75 239z" />
<glyph unicode="6" d="M108 503v112q0 256 96 452q95 194 277 302t419 109h52v-256h-30q-210 -3 -341 -111q-128 -106 -154 -296q126 127 316 127q206 0 325 -146q121 -148 121 -386q0 -151 -67 -277q-66 -124 -187 -193t-274 -69q-248 0 -401 172q-152 171 -152 460zM420 454q0 -156 62 -244 t172 -88q100 0 163 79q62 78 62 205q0 128 -63 207t-168 79q-76 0 -137 -39q-60 -38 -91 -104v-95z" />
<glyph unicode="7" d="M66 1209v252h1108v-174l-607 -1395h-328l607 1317h-780z" />
<glyph unicode="8" d="M102 322q0 130 67 227q68 98 180 152q-99 53 -156 141t-57 202q0 200 134 320q132 119 363 119q229 0 363 -118t134 -321q0 -114 -57 -202q-56 -87 -158 -141q113 -55 181 -152q67 -95 67 -227q0 -209 -142 -330t-387 -121t-388 121q-144 122 -144 330zM414 345 q0 -101 58 -162t162 -61q102 0 159 59t57 164q0 101 -59 163t-160 62q-99 0 -158 -61t-59 -164zM449 1029q0 -94 48 -151t137 -57q88 0 136 57t48 151q0 93 -48 148t-137 55q-88 0 -136 -54t-48 -149z" />
<glyph unicode="9" d="M93 928q0 155 67 283q68 130 188 201t272 71q156 0 276 -77t188 -224q65 -141 67 -333v-115q0 -391 -195 -616t-553 -240l-76 -1v260l68 1q407 18 440 381q-120 -119 -284 -119q-208 0 -333 143t-125 385zM403 931q0 -127 59 -210t166 -83q73 0 129 39q57 40 83 94v128 q0 158 -61 246q-60 87 -161 87q-95 0 -155 -86t-60 -215z" />
<glyph unicode=":" horiz-adv-x="623" d="M134 45q0 74 51 121q50 46 126 46q77 0 126 -46q50 -47 50 -121q0 -72 -49 -118t-127 -46t-127 46q-50 47 -50 118zM134 794q0 74 51 121q52 47 126 47q76 0 126 -47t50 -121q0 -73 -49 -119q-48 -45 -127 -45t-127 45q-50 47 -50 119z" />
<glyph unicode=";" horiz-adv-x="578" d="M61 -416l40 70q73 133 74 262v242h262l-1 -216q-2 -121 -60 -242t-152 -201zM134 794q0 74 51 121q52 47 126 47q76 0 126 -47t50 -121q0 -73 -49 -119q-48 -45 -127 -45t-127 45q-50 47 -50 119z" />
<glyph unicode="&#x3c;" horiz-adv-x="1122" d="M58 434v253l929 394v-302l-615 -221l615 -216v-302z" />
<glyph unicode="=" horiz-adv-x="1263" d="M147 230v254h963v-254h-963zM147 696v255h963v-255h-963z" />
<glyph unicode="&#x3e;" horiz-adv-x="1140" d="M129 39v300l627 223l-627 218v300l940 -393v-253z" />
<glyph unicode="?" horiz-adv-x="1098" d="M48 1044q3 206 134 323q129 116 357 116q230 0 355 -110q126 -111 126 -312q0 -92 -41 -174q-39 -78 -144 -180l-87 -83q-82 -78 -94 -184l-4 -66h-276q0 152 36 240q35 87 135 176q97 87 130 142q32 54 32 114q0 183 -168 183q-80 0 -128 -49q-47 -49 -49 -136h-314z M343 43q0 74 49 120t125 46q77 0 126 -46t49 -120q0 -71 -48 -117q-49 -47 -127 -47q-77 0 -126 47q-48 46 -48 117z" />
<glyph unicode="@" horiz-adv-x="1975" d="M93 391q13 297 137 534q123 236 335 365q210 128 478 128q271 0 465 -115t292 -332q97 -215 85 -501q-12 -277 -136 -438q-125 -162 -335 -162q-91 0 -160 40q-68 39 -102 114q-108 -151 -281 -151q-159 0 -244 132q-85 131 -64 350q20 179 90 317q71 139 178 213t233 74 q154 0 263 -71l67 -47l-54 -622q-11 -87 19 -131q30 -45 94 -45q98 0 166 116q66 114 74 303q18 376 -152 579q-169 202 -503 202q-210 0 -371 -106q-162 -107 -256 -300q-94 -194 -106 -446q-18 -381 153 -590t510 -209q88 0 188 20q99 20 169 54l41 -166q-65 -42 -178 -69 q-111 -27 -225 -27q-281 0 -484 115q-201 114 -300 338q-98 221 -86 534zM802 355q-12 -142 25 -215q38 -74 119 -74q53 0 99 46q49 49 80 134l44 510q-40 13 -85 13q-126 0 -193 -105q-68 -106 -89 -309z" />
<glyph unicode="A" horiz-adv-x="1485" d="M7 -108l585 1569h299l588 -1569h-344l-109 323h-567l-107 -323h-345zM547 477h392l-197 588z" />
<glyph unicode="B" horiz-adv-x="1408" d="M140 -108v1569h550q287 0 433 -109q148 -110 148 -321q0 -113 -60 -202t-165 -129q122 -30 191 -122q69 -91 69 -224q0 -226 -144 -343q-145 -118 -411 -119h-611zM464 152h277q112 0 178 55q64 54 64 150q0 215 -223 218h-296v-423zM464 804h239q244 4 244 195 q0 108 -61 154t-196 46h-226v-395z" />
<glyph unicode="C" horiz-adv-x="1444" d="M93 631v96q0 228 79 399q80 174 228 265q149 92 344 92q274 0 438 -145q167 -147 192 -409h-323q-12 152 -84 221q-71 68 -223 68q-161 0 -241 -116t-83 -359v-119q0 -254 77 -372t244 -118q149 0 223 69q75 70 85 212h323q-18 -253 -187 -399q-167 -145 -444 -145 q-302 0 -475 203t-173 557z" />
<glyph unicode="D" horiz-adv-x="1434" d="M140 -108v1569h483q206 0 370 -93t255 -265q92 -173 92 -391v-72q0 -219 -90 -389q-90 -169 -254 -264q-162 -93 -370 -95h-486zM464 152h156q190 0 290 124q99 123 102 354v83q0 240 -99 363t-290 123h-159v-1047z" />
<glyph unicode="E" horiz-adv-x="1242" d="M140 -108v1569h1050v-262h-726v-374h621v-252h-621v-421h728v-260h-1052z" />
<glyph unicode="F" horiz-adv-x="1209" d="M140 -108v1569h1022v-262h-698v-405h621v-261h-621v-641h-324z" />
<glyph unicode="G" horiz-adv-x="1503" d="M102 615v107q0 236 79 407t228 263q148 91 350 91q279 0 436 -133t187 -387h-315q-21 132 -96 197q-74 63 -203 63q-164 0 -251 -125q-85 -122 -87 -368v-100q0 -249 94 -374q94 -126 275 -126q182 0 260 78v270h-295v239h618v-626q-88 -106 -247 -163t-353 -57 q-206 0 -358 88t-237 259q-83 168 -85 397z" />
<glyph unicode="H" horiz-adv-x="1560" d="M140 -108v1569h324v-636h630v636h324v-1569h-324v673h-630v-673h-324z" />
<glyph unicode="I" horiz-adv-x="643" d="M160 -108v1569h324v-1569h-324z" />
<glyph unicode="J" horiz-adv-x="1233" d="M43 355h326q0 -115 48 -170t153 -55q92 0 148 64q55 62 55 181v1086h323v-1086q0 -149 -66 -265q-64 -113 -187 -177q-118 -62 -273 -62q-248 0 -388 126q-139 126 -139 358z" />
<glyph unicode="K" horiz-adv-x="1401" d="M140 -108v1569h324v-710l141 195l400 515h398l-557 -697l573 -872h-384l-404 630l-167 -181v-449h-324z" />
<glyph unicode="L" horiz-adv-x="1194" d="M140 -108v1569h324v-1309h686v-260h-1010z" />
<glyph unicode="M" horiz-adv-x="1934" d="M140 -108v1569h423l403 -1138l401 1138h425v-1569h-325v429l32 740l-423 -1169h-222l-423 1169l33 -740v-429h-324z" />
<glyph unicode="N" horiz-adv-x="1558" d="M140 -108v1569h324l630 -1034v1034h323v-1569h-324l-629 1033v-1033h-324z" />
<glyph unicode="O" horiz-adv-x="1524" d="M93 633v78q0 232 83 407q84 177 236 271t349 94t349 -94t236 -271q83 -175 83 -407v-70q0 -233 -82 -406q-83 -176 -234 -269q-154 -95 -350 -95q-195 0 -348 93q-152 93 -237 268q-83 173 -85 401zM420 641q0 -240 89 -373q89 -132 254 -132q163 0 250 128 q86 127 88 372v76q0 248 -88 375q-89 128 -252 128t-251 -126t-90 -371v-77z" />
<glyph unicode="P" horiz-adv-x="1423" d="M140 -108v1569h612q177 0 311 -64t207 -184q72 -118 72 -271q0 -230 -158 -364q-157 -133 -437 -133h-283v-553h-324zM464 707h288q127 0 196 61q67 60 67 172q0 115 -68 186q-68 72 -187 73h-296v-492z" />
<glyph unicode="Q" horiz-adv-x="1524" d="M91 633v78q0 232 83 407q84 177 236 271t349 94t349 -94t236 -271q83 -175 83 -407v-70q0 -219 -71 -382q-70 -161 -198 -260l261 -205l-205 -182l-334 269q-54 -10 -119 -10q-195 0 -348 93q-152 93 -237 268q-83 173 -85 401zM419 641q0 -242 88 -373q89 -132 254 -132 q163 0 250 128q88 128 89 372v76q0 247 -89 375t-252 128t-251 -126q-87 -125 -89 -371v-77z" />
<glyph unicode="R" horiz-adv-x="1408" d="M140 -108v1569h583q279 0 430 -124t151 -350q0 -162 -70 -268q-70 -105 -211 -170l339 -642v-15h-347l-294 575h-257v-575h-324zM464 728h260q122 0 189 63q66 62 66 171q0 112 -62 174q-63 63 -194 63h-259v-471z" />
<glyph unicode="S" horiz-adv-x="1357" d="M75 386h324q0 -260 311 -260q114 0 179 47t65 131q0 90 -65 140q-62 47 -233 104q-174 58 -266 107q-267 144 -267 389q0 129 72 228q73 100 205 155q135 56 302 56q168 0 299 -61q133 -62 205 -171q73 -110 73 -253h-324q0 108 -68 168q-66 59 -191 59q-117 0 -184 -50 q-66 -49 -66 -131q0 -78 77 -129q78 -52 228 -97q276 -83 401 -205q127 -124 127 -307q0 -203 -155 -319t-414 -116q-182 0 -331 66q-147 65 -226 182q-78 115 -78 267z" />
<glyph unicode="T" horiz-adv-x="1365" d="M43 1199v262h1278v-262h-480v-1307h-324v1307h-474z" />
<glyph unicode="U" horiz-adv-x="1453" d="M125 416v1045h324v-1035q0 -155 73 -225q74 -71 205 -71q272 0 277 287v1044h324v-1033q0 -257 -162 -408q-159 -149 -439 -149q-276 0 -437 145q-162 145 -165 400z" />
<glyph unicode="V" horiz-adv-x="1443" d="M7 1461h360l353 -1180l356 1180h359l-545 -1569h-338z" />
<glyph unicode="W" horiz-adv-x="1930" d="M37 1461h323l213 -1114l258 1114h274l257 -1116l211 1116h323l-348 -1569h-325l-256 1050l-256 -1050h-325z" />
<glyph unicode="X" horiz-adv-x="1402" d="M24 -108l468 791l-456 778h372l294 -540l294 540h372l-457 -778l468 -791h-375l-302 550l-302 -550h-376z" />
<glyph unicode="Y" horiz-adv-x="1365" d="M2 1461h355l324 -707l327 707h353l-515 -1000v-569h-329v569z" />
<glyph unicode="Z" horiz-adv-x="1337" d="M78 82l777 1117h-775v262h1176v-185l-773 -1124h791v-260h-1196v190z" />
<glyph unicode="[" horiz-adv-x="613" d="M129 -473v2192h466v-241h-153v-1710h153v-241h-466z" />
<glyph unicode="\" horiz-adv-x="931" d="M0 1461h318l655 -1703h-319z" />
<glyph unicode="]" horiz-adv-x="613" d="M14 -232h154v1710h-154v241h466v-2192h-466v241z" />
<glyph unicode="^" horiz-adv-x="964" d="M47 678l323 783h226l322 -783h-247l-188 493l-187 -493h-249z" />
<glyph unicode="_" horiz-adv-x="984" d="M1 -108h982v-244h-982v244z" />
<glyph unicode="`" horiz-adv-x="730" d="M56 1548h339l214 -334h-255z" />
<glyph unicode="a" horiz-adv-x="1183" d="M73 220q0 185 138 284q139 100 397 101h144v66q0 82 -42 130t-131 48q-80 0 -124 -37q-45 -38 -45 -104h-311q0 101 63 188q62 85 176 135q113 49 257 49q215 0 342 -108t127 -305v-505q2 -168 46 -251v-19h-315q-21 41 -31 104q-112 -125 -294 -125q-172 0 -284 99 q-113 99 -113 250zM385 242q0 -58 41 -96q40 -37 112 -37q68 0 127 30q57 29 87 83v201h-117q-234 0 -249 -162z" />
<glyph unicode="b" horiz-adv-x="1243" d="M119 -108v1656h312v-594q108 126 284 126q212 0 334 -157t122 -441v-17q0 -281 -120 -437q-121 -157 -334 -157q-191 0 -303 145l-14 -124h-281zM431 245q57 -123 207 -123q151 0 198 149q23 72 23 216q0 176 -56 258q-55 81 -167 81q-150 0 -205 -121v-460z" />
<glyph unicode="c" horiz-adv-x="1151" d="M71 469v21q0 268 144 429t393 161q218 0 351 -125t134 -331h-293q-2 92 -55 148t-142 56q-110 0 -165 -79t-55 -257v-33q0 -179 55 -258t167 -79q85 0 140 47q54 47 56 127h292q-1 -118 -65 -218q-63 -99 -174 -153t-244 -54q-251 0 -395 159t-144 439z" />
<glyph unicode="d" horiz-adv-x="1243" d="M71 484q0 272 123 434t334 162q170 0 281 -127v595h313v-1656h-281l-16 124q-115 -145 -299 -145q-206 0 -330 162q-125 163 -125 451zM383 461q0 -164 57 -251t165 -87q145 0 204 122v460q-58 121 -201 121q-225 0 -225 -365z" />
<glyph unicode="e" horiz-adv-x="1193" d="M77 447v30q0 174 69 315q68 138 192 213q125 75 284 75q239 0 377 -151q137 -150 137 -428v-127h-742q15 -114 90 -183t193 -69q179 0 281 130l153 -171q-72 -101 -189 -155q-119 -55 -266 -55q-257 0 -417 157q-162 159 -162 419zM396 587h434v24q-1 103 -56 161 q-53 56 -153 56q-93 0 -150 -63q-59 -65 -75 -178z" />
<glyph unicode="f" horiz-adv-x="791" d="M31 830v229h174v99q0 196 112 304q114 109 316 109q60 0 159 -22l-4 -242q-37 10 -95 10q-176 0 -176 -165v-93h232v-229h-232v-938h-312v938h-174z" />
<glyph unicode="g" horiz-adv-x="1259" d="M75 471v13q0 269 127 432q128 164 345 164q191 0 298 -132l13 111h283v-1128q0 -150 -70 -266q-69 -114 -196 -173t-295 -59q-128 0 -250 51t-185 132l138 190q117 -130 283 -130q124 0 193 66t69 188v63q-108 -122 -284 -122q-212 0 -340 164q-129 165 -129 436z M386 461q0 -158 63 -248t175 -90q142 0 204 107v490q-63 106 -202 106q-112 0 -176 -91t-64 -274z" />
<glyph unicode="h" horiz-adv-x="1235" d="M112 -108v1656h312v-617q125 149 311 149q379 0 385 -441v-747h-311v738q0 100 -44 149q-43 47 -143 47q-136 0 -198 -105v-829h-312z" />
<glyph unicode="i" horiz-adv-x="585" d="M118 1361q0 69 46 114q48 46 128 46q79 0 127 -46t48 -114q0 -72 -48 -117t-127 -45q-78 0 -126 45t-48 117zM136 -108v1167h313v-1167h-313z" />
<glyph unicode="j" horiz-adv-x="573" d="M-102 -313q53 -10 98 -10q141 0 141 149v1233h313v-1230q0 -191 -103 -300q-102 -108 -295 -108q-76 0 -154 19v247zM112 1361q0 69 47 114q48 46 128 46q79 0 127 -46q47 -45 47 -114q0 -72 -48 -117t-126 -45q-79 0 -127 45t-48 117z" />
<glyph unicode="k" horiz-adv-x="1178" d="M119 -108v1656h312v-918l61 78l298 351h374l-421 -486l458 -681h-358l-300 468l-112 -112v-356h-312z" />
<glyph unicode="l" horiz-adv-x="585" d="M136 -108v1656h313v-1656h-313z" />
<glyph unicode="m" horiz-adv-x="1910" d="M119 -108v1167h292l10 -131q124 152 336 152q225 0 309 -178q123 178 351 178q190 0 282 -110q93 -111 93 -333v-745h-313v744q0 100 -39 145t-136 45q-141 0 -195 -133l1 -801h-311v743q0 102 -40 146q-41 45 -136 45q-132 0 -192 -109v-825h-312z" />
<glyph unicode="n" horiz-adv-x="1235" d="M113 -108v1167h293l10 -136q127 157 336 157q185 0 275 -109q90 -110 93 -325v-754h-311v746q0 98 -44 144q-43 44 -143 44q-131 0 -197 -111v-823h-312z" />
<glyph unicode="o" horiz-adv-x="1248" d="M71 472v14q0 175 67 310q67 136 192 210q124 74 292 74q238 0 386 -144q150 -145 166 -393l2 -79q0 -269 -150 -431t-402 -162t-402 162q-151 163 -151 439zM383 464q0 -168 62 -254q64 -88 179 -88q114 0 177 87q64 88 64 277q0 162 -64 253q-62 89 -179 89 q-114 0 -177 -89q-62 -87 -62 -275z" />
<glyph unicode="p" horiz-adv-x="1243" d="M119 -557v1616h290l10 -115q112 136 296 136q215 0 335 -159q119 -158 119 -440v-16q0 -269 -122 -432q-121 -162 -330 -162q-178 0 -286 123v-551h-312zM431 237q57 -115 204 -115q223 0 223 365q0 165 -57 251q-58 88 -168 88q-147 0 -202 -111v-478z" />
<glyph unicode="q" horiz-adv-x="1247" d="M71 486q0 276 123 435t335 159q189 0 299 -143l21 122h273v-1616h-313v550q-108 -122 -282 -122q-207 0 -332 162q-124 161 -124 453zM383 464q0 -167 59 -255q58 -87 165 -87q143 0 202 114v482q-58 110 -200 110q-108 0 -167 -87q-59 -88 -59 -277z" />
<glyph unicode="r" horiz-adv-x="804" d="M119 -108v1167h295l9 -139q93 160 259 160q50 0 97 -14l-4 -299q-67 8 -113 8q-176 0 -231 -120v-763h-312z" />
<glyph unicode="s" horiz-adv-x="1135" d="M61 263h294q5 -83 62 -127q58 -44 153 -44q90 0 136 34t46 89q0 57 -57 90q-56 33 -182 58q-416 87 -416 354q0 155 129 259q130 104 337 104q221 0 355 -105q133 -105 133 -272h-312q0 67 -43 112q-42 43 -134 43q-81 0 -123 -35q-43 -36 -43 -91q0 -52 50 -84 q52 -33 165 -55q114 -22 197 -52q246 -92 246 -314q0 -159 -137 -258q-135 -98 -353 -98q-148 0 -261 52q-114 53 -178 143q-64 91 -64 197z" />
<glyph unicode="t" horiz-adv-x="746" d="M11 830v229h170v286h311v-286h200v-229h-200v-582q0 -65 25 -93t96 -28q54 0 90 7v-236q-91 -27 -187 -27q-328 0 -335 330v629h-170z" />
<glyph unicode="u" horiz-adv-x="1235" d="M112 294v765h312v-754q0 -182 165 -182q159 0 219 109v827h312v-1167h-294l-8 119q-116 -140 -319 -140q-187 0 -286 108q-100 109 -101 315z" />
<glyph unicode="v" horiz-adv-x="1115" d="M14 1059h325l218 -787l216 787h326l-394 -1167h-297z" />
<glyph unicode="w" horiz-adv-x="1622" d="M30 1059h301l152 -742l213 742h226l212 -743l153 743h301l-298 -1167h-261l-220 734l-221 -734h-260z" />
<glyph unicode="x" horiz-adv-x="1122" d="M22 -108l347 595l-332 572h335l192 -348l196 348h333l-332 -572l346 -595h-334l-208 367l-207 -367h-336z" />
<glyph unicode="y" horiz-adv-x="1107" d="M4 1059h334l217 -726l216 726h334l-469 -1348l-26 -61q-103 -229 -345 -229q-67 0 -138 21v236l48 -1q89 0 131 26q44 27 69 90l36 96z" />
<glyph unicode="z" horiz-adv-x="1122" d="M80 82l549 724h-533v253h934v-185l-553 -731h571v-251h-968v190z" />
<glyph unicode="{" horiz-adv-x="728" d="M52 447v223q187 0 192 215v228q0 198 97 322q95 122 290 178l61 -173q-82 -30 -124 -105q-41 -73 -44 -208v-226q0 -244 -193 -342q193 -100 193 -344v-228q6 -253 168 -308l-61 -175q-387 108 -387 501v215q0 227 -192 227z" />
<glyph unicode="|" horiz-adv-x="558" d="M186 -399v1860h189v-1860h-189z" />
<glyph unicode="}" horiz-adv-x="728" d="M37 -321q163 59 168 312v229q0 244 197 338q-197 96 -197 344v225q-5 252 -168 313l60 173q194 -54 290 -175q96 -122 98 -321v-232q5 -215 192 -215v-223q-192 0 -192 -225v-234q-9 -378 -388 -484z" />
<glyph unicode="~" horiz-adv-x="1431" d="M114 339q0 202 97 323q98 122 260 122q84 0 153 -33q70 -34 157 -116q87 -83 160 -83q63 0 104 57q40 56 40 139l231 -1q0 -201 -100 -325q-101 -125 -259 -125q-80 0 -148 30q-67 30 -158 116t-165 86q-62 0 -101 -54t-39 -138z" />
<glyph unicode="&#xa1;" horiz-adv-x="623" d="M138 933q0 73 48 119q47 46 127 46q79 0 126 -46q48 -46 48 -119t-49 -119t-125 -46q-77 0 -126 46t-49 119zM148 -487l35 1087h260l35 -1087h-330z" />
<glyph unicode="&#xa2;" horiz-adv-x="1269" d="M107 484v24q0 235 113 392q112 155 317 190v241h215v-242q178 -32 276 -151q99 -120 102 -295h-294q-1 92 -56 148q-54 56 -141 56q-109 0 -165 -81q-53 -78 -55 -252v-36q0 -182 55 -259q56 -78 166 -78q85 0 140 47t56 126h294q-3 -157 -106 -270t-272 -145v-253h-215 v252q-202 33 -316 187q-114 155 -114 399z" />
<glyph unicode="&#xa3;" horiz-adv-x="1311" d="M107 532v254h165l-7 245q0 218 133 344q134 126 356 126q229 0 359 -121q131 -122 131 -328h-309q0 91 -47 140q-47 48 -135 48q-71 0 -118 -53q-46 -52 -46 -156l9 -245h333v-254h-323l6 -150q0 -135 -66 -211h703v-260h-1141v260h99q78 19 78 192l-6 169h-174z" />
<glyph unicode="&#xa4;" horiz-adv-x="1528" d="M87 38l145 148q-107 166 -107 380q0 220 117 394l-155 158l153 155l153 -156q166 124 375 124t375 -126l156 159l153 -156l-160 -163q116 -172 116 -389q0 -208 -106 -375l150 -153l-153 -156l-142 145q-173 -137 -389 -137q-220 0 -390 135l-138 -142zM326 566 q0 -128 58 -237q59 -110 161 -172q103 -63 223 -63q118 0 221 63q102 62 161 172q58 109 58 237q0 130 -58 237q-58 108 -161 171q-100 62 -221 62q-124 0 -224 -62q-101 -63 -160 -171q-58 -107 -58 -237z" />
<glyph unicode="&#xa5;" horiz-adv-x="1351" d="M21 1481h357l297 -654l298 654h355l-405 -770h253v-189h-343v-124h343v-187h-343v-300h-325v300h-361v187h361v124h-361v189h280z" />
<glyph unicode="&#xa6;" horiz-adv-x="556" d="M138 -380v857h281v-857h-281zM138 663v818h281v-818h-281z" />
<glyph unicode="&#xa7;" horiz-adv-x="1387" d="M99 -126h311q0 -95 70 -147q69 -51 206 -51q121 0 183 40t62 109q0 71 -69 114q-70 44 -266 98q-199 55 -297 114q-100 60 -149 141q-48 79 -48 194q0 194 174 295q-147 111 -147 311q0 185 151 297q152 113 410 113q265 0 413 -122q146 -121 146 -338h-311q0 92 -67 151 q-65 58 -181 58q-118 0 -183 -42t-65 -116q0 -77 60 -118t259 -93q197 -52 305 -112q103 -57 155 -142q51 -82 51 -199q0 -195 -175 -292q146 -110 146 -310q0 -188 -148 -296q-147 -107 -409 -107q-278 0 -432 115q-155 116 -155 335zM413 518q0 -74 45 -115 q46 -42 178 -83l239 -72q88 51 88 150q0 68 -49 110q-52 44 -176 85l-245 77q-80 -45 -80 -152z" />
<glyph unicode="&#xa8;" horiz-adv-x="1030" d="M101 1382q0 60 41 98q42 39 107 39q68 0 108 -40q41 -41 41 -97q0 -57 -41 -96t-108 -39q-65 0 -106 38q-42 39 -42 97zM625 1382q0 57 43 97t106 40q62 0 106 -39q43 -39 43 -98q0 -56 -41 -96t-108 -40q-68 0 -108 40q-41 41 -41 96z" />
<glyph unicode="&#xa9;" horiz-adv-x="1731" d="M93 678q0 219 100 404q101 186 279 294q177 107 386 107q208 0 385 -107q180 -109 280 -294t100 -404q0 -220 -102 -407t-280 -294q-176 -106 -383 -106q-208 0 -385 108t-279 294q-101 184 -101 405zM224 678q0 -182 84 -338q84 -157 230 -246q147 -90 320 -90 q171 0 320 92q148 91 231 247q82 154 82 335q0 179 -81 332q-83 157 -228 246q-149 92 -324 92q-172 0 -318 -88q-147 -89 -231 -244q-85 -158 -85 -338zM467 620v122q0 188 102 302t274 114q177 0 269 -88q93 -88 93 -250h-168q0 103 -50 148q-49 45 -144 45 q-100 0 -154 -73t-55 -194v-132q0 -129 55 -200q55 -72 154 -72q95 0 144 44t49 148h168q0 -164 -95 -251t-266 -87q-172 0 -274 115t-102 309z" />
<glyph unicode="&#xab;" horiz-adv-x="1102" d="M83 466v20l302 421h200l-258 -432l258 -430h-200zM498 466v20l302 421h200l-258 -432l258 -430h-200z" />
<glyph unicode="&#xad;" horiz-adv-x="855" d="M118 458v251h608v-251h-608z" />
<glyph unicode="&#xae;" horiz-adv-x="1731" d="M93 678q0 219 100 404q101 186 279 294q177 107 386 107q208 0 385 -107q180 -109 280 -294t100 -404q0 -220 -102 -407t-280 -294q-176 -106 -383 -106q-208 0 -385 108t-279 294q-101 184 -101 405zM224 678q0 -182 84 -338q84 -157 230 -246q147 -90 320 -90 q171 0 320 92q148 91 231 247q82 154 82 335q0 179 -81 332q-83 157 -228 246q-149 92 -324 92q-172 0 -318 -88q-147 -89 -231 -244q-85 -158 -85 -338zM540 232v917h303q161 0 256 -74q94 -73 94 -209q0 -120 -122 -188q65 -32 92 -93q27 -60 27 -148q0 -93 4 -125 q5 -40 14 -62v-18h-167q-13 36 -13 210q0 82 -36 118t-118 36h-171v-364h-163zM703 741h146q81 0 131 34q51 35 51 90q0 76 -38 108q-36 30 -138 32h-152v-264z" />
<glyph unicode="&#xaf;" horiz-adv-x="1105" d="M159 1302v180h788v-180h-788z" />
<glyph unicode="&#xb0;" horiz-adv-x="856" d="M136 1205q0 123 87 210t206 87q117 0 203 -87q86 -88 86 -211q0 -124 -86 -208q-87 -85 -203 -85q-115 0 -205 85q-88 84 -88 209zM294 1205q0 -56 39 -95t96 -39q56 0 94 38q37 37 37 96q0 57 -37 97q-38 41 -94 41q-57 0 -96 -41q-39 -40 -39 -97z" />
<glyph unicode="&#xb1;" horiz-adv-x="1186" d="M96 667v259h361v370h273v-370h354v-259h-354v-393h-273v393h-361zM122 -88v254h931v-254h-931z" />
<glyph unicode="&#xb4;" horiz-adv-x="731" d="M109 1232l212 334h340l-299 -334h-253z" />
<glyph unicode="&#xb7;" horiz-adv-x="665" d="M150 662q0 74 50 121q49 46 127 46q77 0 126 -46q50 -47 50 -121t-50 -120t-126 -46q-77 0 -127 47t-50 119z" />
<glyph unicode="&#xbb;" horiz-adv-x="1102" d="M92 45l258 430l-258 431h201l302 -421v-20l-302 -420h-201zM516 45l258 430l-258 431h201l302 -421v-20l-302 -420h-201z" />
<glyph unicode="&#xd7;" horiz-adv-x="1172" d="M70 313l331 337l-331 337l183 182l328 -336l329 336l183 -182l-331 -337l331 -337l-183 -181l-329 334l-328 -334z" />
<glyph unicode="&#xf7;" horiz-adv-x="1259" d="M68 526v249h1108v-249h-1108zM447 209q0 74 49 119q50 45 127 45q79 0 127 -44q50 -45 50 -120q0 -70 -49 -116q-48 -45 -128 -45t-128 45t-48 116zM447 1085q0 73 49 118q50 45 127 45q79 0 127 -44q50 -45 50 -119q0 -71 -49 -117q-48 -45 -128 -45t-128 45t-48 117z " />
<glyph unicode="&#x2c6;" horiz-adv-x="1094" d="M133 1252v17l318 297h182l323 -302v-12h-248l-166 156l-166 -156h-243z" />
<glyph unicode="&#x2dc;" horiz-adv-x="1061" d="M126 1267q0 119 71 204q71 84 173 84q31 0 61 -8q29 -7 93 -39q66 -32 90 -38q30 -7 51 -7q39 0 65 26q28 28 28 76l180 -11q0 -121 -72 -205q-70 -82 -173 -82q-41 0 -73 9q-34 10 -88 39q-58 31 -81 38q-24 7 -53 7q-38 0 -65 -27q-26 -26 -26 -77z" />
<glyph unicode="&#x2000;" horiz-adv-x="872" />
<glyph unicode="&#x2001;" horiz-adv-x="1745" />
<glyph unicode="&#x2002;" horiz-adv-x="872" />
<glyph unicode="&#x2003;" horiz-adv-x="1745" />
<glyph unicode="&#x2004;" horiz-adv-x="581" />
<glyph unicode="&#x2005;" horiz-adv-x="436" />
<glyph unicode="&#x2006;" horiz-adv-x="290" />
<glyph unicode="&#x2007;" horiz-adv-x="290" />
<glyph unicode="&#x2008;" horiz-adv-x="218" />
<glyph unicode="&#x2009;" horiz-adv-x="349" />
<glyph unicode="&#x200a;" horiz-adv-x="96" />
<glyph unicode="&#x2010;" horiz-adv-x="855" d="M118 439v251h608v-251h-608z" />
<glyph unicode="&#x2011;" horiz-adv-x="855" d="M118 439v251h608v-251h-608z" />
<glyph unicode="&#x2012;" horiz-adv-x="855" d="M118 439v251h608v-251h-608z" />
<glyph unicode="&#x2013;" horiz-adv-x="1271" d="M118 439v251h1024v-251h-1024z" />
<glyph unicode="&#x2014;" horiz-adv-x="2295" d="M118 439v251h2048v-251h-2048z" />
<glyph unicode="&#x2018;" horiz-adv-x="516" d="M112 1041v161q0 100 57 216t139 186l147 -86q-93 -147 -96 -297v-180h-247z" />
<glyph unicode="&#x2019;" horiz-adv-x="506" d="M62 1084q93 146 96 301v181h248v-166q0 -98 -54 -210q-55 -114 -143 -192z" />
<glyph unicode="&#x201a;" horiz-adv-x="547" d="M71 -333q84 136 87 296v195h257l-1 -179q-2 -99 -54 -207q-55 -114 -142 -190z" />
<glyph unicode="&#x201c;" horiz-adv-x="895" d="M121 1041v161q0 100 57 216t139 186l147 -86q-93 -147 -96 -297v-180h-247zM491 1041v161q0 103 56 216q57 115 140 186l146 -86q-93 -147 -96 -297v-180h-246z" />
<glyph unicode="&#x201d;" horiz-adv-x="902" d="M77 1084q94 147 97 301v181h247v-166q0 -98 -54 -210q-55 -114 -143 -192zM451 1084q94 147 97 301v181h247v-166q0 -98 -54 -210q-55 -114 -143 -192z" />
<glyph unicode="&#x201e;" horiz-adv-x="889" d="M71 -354q84 144 87 316v232h257l-1 -214q-2 -106 -52 -223q-51 -119 -137 -196zM434 -354q92 157 95 317v231h256l-1 -218q-1 -103 -56 -221q-55 -119 -140 -194z" />
<glyph unicode="&#x202f;" horiz-adv-x="349" />
<glyph unicode="&#x2039;" horiz-adv-x="687" d="M117 466v20l302 421h200l-259 -432l259 -430h-200z" />
<glyph unicode="&#x203a;" horiz-adv-x="666" d="M86 45l259 430l-259 431h202l301 -421v-20l-301 -420h-202z" />
<glyph unicode="&#x205f;" horiz-adv-x="436" />
<glyph unicode="&#x25fc;" horiz-adv-x="1059" d="M0 0v1060h1060v-1060h-1060z" />
</font>
</defs>
</svg>
