<?xml version="1.0" standalone="no"?>
<!DOCTYPE svg PUBLIC "-//W3C//DTD SVG 1.1//EN" "http://www.w3.org/Graphics/SVG/1.1/DTD/svg11.dtd" >
<svg xmlns="http://www.w3.org/2000/svg">
<metadata></metadata>
<defs>
<font id="iransansweblight" horiz-adv-x="1223" >
<font-face units-per-em="2048" ascent="1638" descent="-410" />
<missing-glyph horiz-adv-x="578" />
<glyph horiz-adv-x="0" />
<glyph unicode="&#xd;" horiz-adv-x="536" />
<glyph unicode=" "  horiz-adv-x="578" />
<glyph unicode="&#x09;" horiz-adv-x="578" />
<glyph unicode="&#xa0;" horiz-adv-x="578" />
<glyph unicode="!" horiz-adv-x="515" d="M129 131l132 133l126 -126l-132 -133zM169 1187v271h163v-271l-20 -777h-113z" />
<glyph unicode="&#x22;" horiz-adv-x="633" d="M143 1049l4 509h125v-162l-22 -347h-107zM396 1049l5 509h126v-162l-22 -347h-109z" />
<glyph unicode="#" horiz-adv-x="1284" d="M81 323v122h294q4 19 11 58t10 56l23 112q29 149 42 228h-298v125h322q50 256 85 449h128l-84 -449h317q68 353 86 449h129l-85 -449h244v-125h-267q-4 -19 -11 -58t-10 -57l-22 -112q-39 -201 -43 -227h272v-122h-295q-3 -18 -17 -92t-24 -129l-22 -112 q-4 -22 -10.5 -58t-9.5 -50h-130l83 441h-316q-3 -18 -17 -92t-24 -129l-22 -112q-4 -22 -10.5 -58t-9.5 -50h-129l83 441h-273zM505 445h316q4 19 11 58t10 56l23 112q29 149 42 228h-317q-11 -65 -21 -115l-21 -112q-39 -201 -43 -227z" />
<glyph unicode="$" d="M113 354h151q0 -176 95 -268q95 -91 266 -91q147 0 241 80q95 80 95 205q0 114 -75 187q-77 76 -270 142v-1q-247 78 -345 184q-102 108 -102 280q0 182 111 293t290 126v220h132v-220q192 -18 294 -149q104 -131 104 -353h-151q0 177 -85 272q-84 97 -231 97 q-149 0 -232 -78q-82 -75 -82 -205q0 -117 75 -195q84 -72 263 -136q192 -64 279 -123q175 -123 175 -340q0 -181 -114 -292q-111 -108 -300 -126v-206h-130v205q-212 17 -332 138q-122 127 -122 354z" />
<glyph unicode="%" horiz-adv-x="1631" d="M107 1085v75q0 142 89 239q91 96 229 96q134 0 227 -96q91 -97 91 -246v-76q0 -141 -89 -238q-88 -95 -227 -95q-138 0 -228 94q-92 95 -92 247zM232 1077q0 -96 54 -159v2q54 -62 141 -62q86 0 137 60q52 62 52 163v79q0 97 -53 157q-53 62 -138 62q-84 0 -138 -61 q-55 -63 -55 -165v-76zM373 71l777 1244l98 -62l-777 -1244zM897 199v78q0 143 90 239q90 95 227 95t227 -95q91 -95 91 -246v-77q0 -143 -89 -239t-228 -96q-137 0 -228 96q-90 91 -90 245zM1022 193q0 -95 53 -159v1q54 -62 140 -62q88 0 138 61q54 63 54 165v78 q0 98 -54 158q-55 61 -139 61q-86 0 -139 -61q-53 -62 -53 -163v-79z" />
<glyph unicode="&#x26;" horiz-adv-x="1357" d="M106 292q0 115 69 221q76 112 254 244q-183 195 -183 369q0 171 101 268q103 100 271 100q154 0 249 -91q96 -89 96 -227q0 -161 -183 -314l-162 -126q109 -125 207 -241l102 -120q27 -31 63.5 -74.5t40.5 -47.5q89 151 89 352h141q0 -275 -135 -462l226 -261h-186 l-131 152q-179 -174 -431 -174q-229 0 -364 118q-134 118 -134 314zM256 292q0 -138 93 -220q92 -82 255 -82q189 0 340 149l-108 125l-109 127q-38 44 -77.5 90t-83 96t-63.5 73l-41 -32q-206 -173 -206 -326zM396 1131q0 -127 136 -296q7 6 30 23t37 28t37 28t30 23 q153 108 153 239q0 79 -55 133q-54 53 -148 53q-100 0 -160 -65t-60 -166z" />
<glyph unicode="'" horiz-adv-x="374" d="M118 1056q5 295 5 502h132v-164l-19 -338h-118z" />
<glyph unicode="(" horiz-adv-x="748" d="M109 526q6 330 133 627q135 315 371 500l67 -93q-427 -384 -432 -1052q-3 -315 135 -626q126 -284 298 -409l-58 -87q-251 182 -390 506q-129 302 -124 634z" />
<glyph unicode=")" horiz-adv-x="718" d="M103 -527q172 124 299 409q137 308 135 626q-6 668 -433 1052l69 93q234 -184 370 -500q127 -297 133 -627q6 -329 -124 -634q-139 -324 -390 -506z" />
<glyph unicode="*" horiz-adv-x="936" d="M17 1079l41 130l355 -131l-4 395h133l-9 -398q11 4 86 34l87 34q141 55 173 67l42 -129l-355 -123l238 -313l-109 -81l-228 326l-217 -324l-110 79l232 319z" />
<glyph unicode="+" horiz-adv-x="1245" d="M70 558v143h468v502h152v-502h477v-143h-477v-519h-152v519h-468z" />
<glyph unicode="," horiz-adv-x="422" d="M50 -347q102 135 105 275v178h148v-146q0 -229 -161 -375z" />
<glyph unicode="-" horiz-adv-x="631" d="M42 519v131h538v-131h-538z" />
<glyph unicode="." horiz-adv-x="527" d="M145 -30q0 42 28 72q28 29 75 29t75 -29q29 -29 29 -72q0 -44 -29 -70q-29 -27 -75 -27t-75 27q-28 26 -28 70z" />
<glyph unicode="/" horiz-adv-x="876" d="M17 -253l663 1726h139l-661 -1726h-141z" />
<glyph unicode="0" d="M118 531v281q0 335 126 509q126 173 367 173q240 0 364 -167q125 -167 130 -493v-287q0 -338 -125 -513q-124 -174 -366 -174q-240 0 -366 171q-127 172 -130 500zM268 532q0 -262 89 -402t257 -140q166 0 253 136q86 137 87 400v302q0 534 -343 534q-337 0 -343 -521 v-309z" />
<glyph unicode="1" d="M181 1133v142l546 203h32v-1596h-151v1409z" />
<glyph unicode="2" d="M102 998q-4 210 137 354q142 145 356 142q219 0 344 -116t125 -317q0 -112 -70 -245q-70 -132 -242 -328l-423 -476h813v-130h-1005v114l541 613h-1q134 152 184 252q51 99 51 190q0 145 -84 228q-83 83 -233 83q-151 0 -249 -98q-94 -101 -94 -266h-150z" />
<glyph unicode="3" d="M95 329h151q0 -154 101 -248q107 -91 261 -91q163 0 252 83q91 84 91 240q0 153 -98 233q-100 80 -289 80h-140v132h144q161 0 259 83q95 81 95 211q0 147 -82 228q-83 82 -237 82q-149 0 -241 -86t-92 -237h-152q-3 193 139 326q143 134 346 129q218 0 344 -120 q125 -119 125 -326q0 -115 -74 -215q-72 -90 -172 -135q127 -49 201 -149q74 -101 74 -231q0 -207 -134 -332q-135 -126 -359 -126q-144 0 -262 57q-121 58 -187 160q-64 103 -64 252z" />
<glyph unicode="4" d="M61 278v87l732 1108h158v-1064h244v-131h-244v-396h-151v396h-739zM250 409h550v844l-38 -63z" />
<glyph unicode="5" d="M169 316h145q39 -326 345 -326q161 0 245 104q83 101 83 296q0 167 -93 274q-93 105 -254 105q-99 0 -160 -23q-55 -22 -139 -92l-118 33l79 786h805v-142h-675l-52 -498q131 75 282 75q217 0 347 -140q129 -141 129 -375q0 -251 -126 -393q-126 -140 -353 -140 q-208 0 -340 118q-131 117 -150 338z" />
<glyph unicode="6" d="M129 456v129q0 424 194 659q195 234 553 240h44v-134h-26q-277 0 -436 -163q-147 -151 -172 -416q138 162 375 162q213 0 337 -148v2q125 -146 125 -381q5 -237 -130 -392q-135 -159 -345 -154q-231 0 -376 166q-143 165 -143 430zM280 444q0 -200 103 -327 q102 -126 265 -126q145 0 234 116q92 116 92 295q0 182 -92 291q-89 108 -242 108q-114 0 -223 -71q-101 -74 -137 -179v-107z" />
<glyph unicode="7" d="M72 1341v132h1054v-87l-675 -1504h-158l666 1459h-887z" />
<glyph unicode="8" d="M103 308q0 138 81 245q71 94 196 144q-104 49 -165 136q-72 101 -72 225q0 198 129 318q130 118 341 118t340 -120q131 -119 131 -316q0 -124 -74 -225q-62 -85 -169 -136q125 -50 199 -143q85 -108 85 -246q0 -206 -141 -328q-140 -120 -370 -120q-232 0 -372 120 q-139 121 -139 328zM253 307q0 -146 97 -231q98 -86 264 -86q162 0 261 87q98 86 98 230t-101 233q-100 91 -259 91t-259 -89q-101 -89 -101 -235zM294 1059q0 -134 88 -215q89 -81 232 -81q142 0 229 81q89 83 89 215q0 131 -91 216q-88 87 -228 87q-144 0 -231 -83 q-88 -82 -88 -220z" />
<glyph unicode="9" d="M98 932q0 160 60 287q63 131 171 201q119 74 254 74q244 0 376 -170q134 -169 134 -475v-117q0 -862 -745 -862h-35l1 134h56q260 11 405 154q150 149 165 425q-149 -188 -381 -188q-133 0 -240 72q-104 71 -164 195q-57 124 -57 270zM247 938q0 -170 91 -294 q96 -116 237 -116q129 0 226 75q99 73 142 191v75q0 236 -98 364q-96 128 -260 128q-147 0 -242 -119q-96 -120 -96 -304z" />
<glyph unicode=":" horiz-adv-x="463" d="M126 103q0 43 27 72q29 30 76 30q46 0 76 -30q27 -29 27 -72t-27 -69q-30 -28 -76 -28t-76 28q-27 26 -27 69zM128 884q0 44 28 72q28 30 75 30t75 -30q28 -28 28 -72q0 -41 -28 -69q-30 -28 -75 -28q-47 0 -75 28t-28 69z" />
<glyph unicode=";" horiz-adv-x="430" d="M50 -232q102 135 105 276v178h148v-146q0 -229 -161 -375zM128 884q0 44 28 72q28 30 75 30t75 -30q28 -28 28 -72q0 -41 -28 -69q-30 -28 -75 -28q-47 0 -75 28t-28 69z" />
<glyph unicode="&#x3c;" horiz-adv-x="1128" d="M72 541v118l913 417v-159l-734 -319l734 -317v-158z" />
<glyph unicode="=" horiz-adv-x="1221" d="M150 332v135h920v-135h-920zM150 775v136h920v-136h-920z" />
<glyph unicode="&#x3e;" horiz-adv-x="1143" d="M123 125v156l751 322l-751 319v156l932 -417v-118z" />
<glyph unicode="?" horiz-adv-x="1002" d="M80 1084q2 189 123 300q128 110 305 110q190 0 301 -112q111 -111 111 -301q0 -122 -54 -224t-204 -241q-118 -100 -118 -299h-139l-11 11q2 128 36 209q31 77 142 185q101 100 135 148q62 86 62 209q0 132 -68 204q-69 74 -193 74q-125 0 -201 -71q-75 -71 -77 -202 h-150zM378 -32q0 43 25 69q27 29 73 29t73 -29q28 -28 28 -69q0 -42 -28 -68q-27 -27 -73 -27t-73 27q-25 25 -25 68z" />
<glyph unicode="@" horiz-adv-x="2015" d="M123 337q0 55 1 71q15 307 132 535q119 229 332 362q216 129 476 129q398 5 620 -237q220 -239 220 -670q0 -27 -3 -82q-4 -157 -59 -298q-56 -137 -149 -212q-99 -75 -223 -75q-206 0 -262 191q-120 -191 -317 -191q-156 0 -235 136q-60 106 -60 269q0 36 4 89 q21 265 160 441q137 176 319 173q88 0 150 -25h-1q60 -21 153 -98l-55 -620q-2 -36 -2 -46q0 -205 159 -205q124 0 206 124q80 130 91 347q2 66 2 82q0 389 -185 588q-183 197 -537 197q-224 0 -406 -113q-173 -107 -284 -317q-102 -208 -117 -474q-2 -58 -2 -71 q0 -215 72 -403q89 -206 251 -313q168 -109 403 -109q97 0 192 23q93 25 168 67l41 -105q-73 -48 -181 -76q-111 -28 -225 -28q-272 0 -469 123q-198 124 -295 355q-85 200 -85 466zM732 277q0 -47 4 -76q25 -215 178 -215q192 0 285 267l-1 -2l48 550q-66 48 -160 48 q-110 0 -197 -97q-87 -96 -128 -254q-29 -119 -29 -221z" />
<glyph unicode="A" horiz-adv-x="1378" d="M17 -118l602 1591h141l601 -1591h-159l-164 439h-697l-163 -439h-161zM389 456h599l-299 814z" />
<glyph unicode="B" horiz-adv-x="1352" d="M188 -118v1591h474q524 0 524 -422q0 -117 -60 -205q-59 -89 -163 -134q117 -34 193 -130q86 -107 86 -248q0 -212 -138 -334q-136 -118 -381 -118h-535zM342 15h386q166 0 262 84q97 84 97 233q0 139 -92 221q-94 83 -256 83h-397v-621zM342 768h351q161 3 249 76 t88 210q0 283 -368 283h-320v-569z" />
<glyph unicode="C" horiz-adv-x="1433" d="M131 572v203v15q0 309 166 506q169 198 433 198h13q251 0 405 -141q149 -138 174 -394h-155q-51 400 -424 400q-208 0 -333 -155q-123 -154 -123 -435v-191q0 -266 120 -428q127 -156 326 -156t306 99q102 96 128 300h144l10 -13q-27 -251 -180 -386q-154 -134 -408 -134 h-15q-256 0 -421 196q-166 198 -166 509v7z" />
<glyph unicode="D" horiz-adv-x="1445" d="M188 -118v1591h449q198 0 351 -90q155 -89 243 -256q87 -165 87 -378v-144v-13q0 -310 -191 -512q-189 -198 -482 -198h-17h-440zM342 15h287q230 0 390 160q147 165 147 439v138q0 264 -146 425q-142 158 -381 160h-297v-1322z" />
<glyph unicode="E" horiz-adv-x="1255" d="M188 -118v1591h993v-136h-839v-569h734v-134h-734v-619h844v-133h-998z" />
<glyph unicode="F" horiz-adv-x="1242" d="M188 -118v1591h994v-136h-840v-588h732v-135h-732v-732h-154z" />
<glyph unicode="G" horiz-adv-x="1509" d="M145 580v198q0 331 168 523q168 193 451 193q248 0 397 -126q153 -126 181 -359h-154q-30 173 -138 261q-109 89 -285 89q-214 0 -339 -152q-126 -156 -126 -434v-185v-15q0 -251 133 -415q134 -164 344 -164h8q162 0 291 52q77 37 112 78v390h-421v134h575v-570l-2 -6 q-72 -101 -223 -156q-148 -56 -332 -56h-16q-268 0 -445 199q-179 199 -179 514v7z" />
<glyph unicode="H" horiz-adv-x="1561" d="M188 -118v1591h154v-705h875v705h155v-1591h-155v752h-875v-752h-154z" />
<glyph unicode="I" horiz-adv-x="587" d="M216 -118v1591h154v-1591h-154z" />
<glyph unicode="J" horiz-adv-x="1214" d="M66 335h154q0 -170 86 -256q84 -85 245 -85q144 0 236 95q93 96 94 263v1121h155v-1114q0 -225 -133 -363q-131 -136 -352 -136q-234 0 -360 123q-125 122 -125 352z" />
<glyph unicode="K" horiz-adv-x="1392" d="M188 -118v1591h154v-831l789 831h196l-668 -710q22 -27 81 -100t96 -119l91 -110l90 -113q250 -307 359 -439h-190l-635 773l-209 -205v-568h-154z" />
<glyph unicode="L" horiz-adv-x="1162" d="M188 -118v1591h155v-1458h774v-133h-929z" />
<glyph unicode="M" horiz-adv-x="1909" d="M188 -118v1591h192l573 -1369q23 55 71.5 171t71.5 171l144 343l145 342q31 73 80 192.5t62 149.5h194v-1591h-154v693l11 648q-34 -82 -133.5 -316.5t-149.5 -354.5l-143 -336l-141 -334h-115l-565 1337l11 -639v-698h-154z" />
<glyph unicode="N" horiz-adv-x="1567" d="M188 -118v1591h149l887 -1320v1320h154v-1591h-149l-886 1317v-1317h-155z" />
<glyph unicode="O" horiz-adv-x="1494" d="M124 598v162q0 219 76 383q82 171 220 259q145 92 326 92h8q270 0 441 -196q173 -200 174 -519v-187v-15q0 -320 -170 -518q-170 -199 -440 -199h-11q-278 0 -452 200q-172 200 -172 538zM278 592q0 -277 127 -437q125 -159 343 -159t343 157q124 157 124 443v166 q0 278 -126 437q-127 157 -343 157q-214 0 -341 -157q-127 -155 -127 -443v-164z" />
<glyph unicode="P" horiz-adv-x="1358" d="M188 -118v1591h545q248 0 393 -128q146 -128 146 -352q0 -226 -139 -349q-141 -123 -403 -123h-388v-639h-154zM342 654h391q186 0 287 89q97 87 97 247q0 161 -97 252q-97 94 -278 95h-400v-683z" />
<glyph unicode="Q" horiz-adv-x="1494" d="M119 584v176q0 217 77 383q82 171 220 259q145 92 325 92q185 0 327 -92q141 -92 219 -256q78 -168 78 -385v-169q0 -224 -76 -391t-220 -254q6 -5 29.5 -26t39.5 -35l72 -61q31 -27 78 -68.5t63 -54.5l-108 -98l-323 279q-94 -23 -177 -23h-11q-266 0 -439 199 q-175 204 -174 525zM273 592q0 -269 127 -437q136 -159 343 -159q215 0 342 157q125 157 125 442v167q0 279 -125 437q-127 157 -344 157q-213 0 -340 -157q-128 -157 -128 -443v-164z" />
<glyph unicode="R" horiz-adv-x="1401" d="M184 -118v1591h521q255 0 400 -125q144 -125 144 -349q0 -156 -91 -272q-93 -119 -227 -160l385 -658v-27h-158l-380 652h-439v-652h-155zM339 670h396q163 0 261 91q98 92 98 238q0 162 -103 250q-101 88 -288 88h-364v-667z" />
<glyph unicode="S" horiz-adv-x="1307" d="M84 352h155q0 -173 119 -265q123 -93 323 -93q180 0 288 78q107 78 107 206q0 123 -88 197q-93 76 -332 143q-241 68 -359 151q-163 121 -163 309q0 185 152 300q154 116 385 116h10q232 0 387 -140q154 -139 154 -342v-8h-156q0 167 -107 260q-107 95 -288 95 q-175 0 -280 -79q-103 -77 -103 -200q0 -112 92 -186q91 -73 305 -132q215 -59 322 -121q224 -126 224 -361q0 -192 -153 -306t-397 -114q-171 0 -309 60q-141 61 -214 169q-74 112 -74 263z" />
<glyph unicode="T" horiz-adv-x="1317" d="M45 1337v136h1229v-136h-538v-1455h-154v1455h-537z" />
<glyph unicode="U" horiz-adv-x="1450" d="M164 380v1093h153v-1073q0 -194 110 -301q111 -105 300 -105t298 107q110 106 110 298v1074h155v-1083v-6q0 -237 -156 -381q-154 -143 -397 -143h-10q-251 0 -406 138q-153 139 -157 382z" />
<glyph unicode="V" horiz-adv-x="1361" d="M19 1473h165l496 -1380l497 1380h168l-593 -1591h-141z" />
<glyph unicode="W" horiz-adv-x="1979" d="M52 1473h158l328 -1350l390 1350h137l385 -1355l327 1355h159l-407 -1591h-145l-387 1348l-1 -7l-3 -9l-9 -32q-5 -19 -21 -75.5t-25 -87.5q-70 -241 -335 -1137h-145z" />
<glyph unicode="X" horiz-adv-x="1350" d="M39 -118l544 805l-528 786h185l436 -655l436 655h184l-527 -786q43 -64 272 -402q55 -82 147.5 -219t124.5 -184h-186l-451 676l-454 -676h-183z" />
<glyph unicode="Y" horiz-adv-x="1321" d="M6 1473h184l469 -844l473 844h179l-576 -993v-598h-154v598z" />
<glyph unicode="Z" horiz-adv-x="1320" d="M86 -4l922 1341h-894v136h1089v-110l-925 -1348h960v-133h-1152v114z" />
<glyph unicode="[" horiz-adv-x="528" d="M165 -455v2151h377v-131h-226v-1888h226v-132h-377z" />
<glyph unicode="\" horiz-adv-x="869" d="M37 1473h148l664 -1726h-149z" />
<glyph unicode="]" horiz-adv-x="528" d="M-11 -323h227v1888h-227v131h379v-2151h-379v132z" />
<glyph unicode="^" horiz-adv-x="918" d="M67 667l331 806h112l330 -806h-149l-237 597l-239 -597h-148z" />
<glyph unicode="_" horiz-adv-x="952" d="M-10 -97h972v-130h-972v130z" />
<glyph unicode="`" horiz-adv-x="630" d="M88 1546h184l220 -323h-143z" />
<glyph unicode="a" horiz-adv-x="1182" d="M97 201q0 177 145 279q149 101 403 101h222v122q0 121 -74 189q-75 69 -216 69q-134 0 -217 -67q-84 -68 -84 -168l-151 1q0 154 134 260q133 104 324 104q201 0 315 -102v1q117 -98 120 -279v-553q0 -156 35 -276h-148q-29 54 -35 145q-70 -78 -173 -123 q-103 -44 -213 -44q-171 0 -280 97q-107 98 -107 244zM248 212q0 -94 69 -155q68 -61 182 -61q127 0 225 61q99 61 143 158v245h-219q-193 -2 -296 -69q-104 -65 -104 -179z" />
<glyph unicode="b" d="M157 -118v1676h149v-636q133 169 354 169q209 0 335 -163q122 -161 122 -445v-19q0 -281 -122 -440q-125 -164 -333 -164q-236 0 -358 159q0 -23 -3 -70l-1 -34l-2 -33h-141zM306 204q93 -210 332 -210q158 0 242 123q87 127 87 369q0 226 -86 348q-87 123 -245 123 q-240 0 -330 -230v-523z" />
<glyph unicode="c" horiz-adv-x="1137" d="M91 459v39v11q0 256 137 419q138 163 359 163h11q195 0 324 -118q130 -121 137 -319h-145q-8 142 -97 225q-85 80 -219 80q-166 0 -263 -121q-94 -132 -94 -347v-39q0 -209 94 -341q97 -121 264 -121q131 0 219 73q87 72 96 200h145q-3 -168 -143 -288 q-133 -115 -308 -115h-9q-236 0 -373 164q-135 160 -135 435z" />
<glyph unicode="d" horiz-adv-x="1227" d="M106 471v15q0 277 123 439q125 166 338 166q229 0 349 -163v630h150v-1676h-143l-5 134q-118 -156 -353 -156q-206 0 -334 166q-125 169 -125 445zM257 464q0 -219 88 -346q87 -124 244 -124q229 0 327 201v543q-96 219 -326 219q-159 0 -245 -125q-88 -127 -88 -368z " />
<glyph unicode="e" horiz-adv-x="1140" d="M87 442v46q0 172 66 307q70 142 186 216h-1q121 80 259 80q217 0 345 -149q127 -146 127 -403v-83h-832v-14q0 -194 111 -324q113 -128 278 -128q198 0 324 163l99 -75q-153 -218 -428 -218h-15q-218 0 -368 164q-151 165 -151 400v18zM242 588h677v2q-4 164 -94 267 q-89 102 -228 102q-132 0 -238 -103q-96 -111 -117 -268z" />
<glyph unicode="f" horiz-adv-x="731" d="M57 942v127h193v130q0 183 95 284q92 98 260 98q78 0 149 -20l-11 -131q-68 17 -128 17q-101 0 -157 -63q-57 -64 -57 -181v-134h278v-127h-278v-1060h-151v1060h-193z" />
<glyph unicode="g" horiz-adv-x="1224" d="M106 469v17q0 278 123 440q125 165 338 165q228 0 354 -169l1 36v38q1 50 3 73h142v-1153q0 -230 -129 -365q-130 -134 -349 -134q-120 0 -237 56q-114 56 -184 155l87 92q141 -172 325 -172q150 0 240 96q87 94 95 253v114q-131 -151 -350 -151q-207 0 -334 166 q-125 166 -125 443zM257 464q0 -219 88 -346q87 -124 244 -124q230 0 326 205v537q-89 221 -325 221q-159 0 -245 -125q-88 -127 -88 -368z" />
<glyph unicode="h" horiz-adv-x="1211" d="M158 -118v1676h149v-661q65 92 161 143t208 51q381 0 383 -434v-775h-151v777q0 151 -63 224q-65 74 -200 74q-120 0 -206 -73q-90 -72 -132 -193v-809h-149z" />
<glyph unicode="i" horiz-adv-x="495" d="M150 1396q0 44 26 70q27 28 73 28q45 0 73 -28q27 -27 27 -70q0 -42 -27 -69q-30 -28 -73 -28q-45 0 -73 28q-26 26 -26 69zM173 -118v1187h150v-1187h-150z" />
<glyph unicode="j" horiz-adv-x="503" d="M-123 -566l2 130q62 -19 108 -19q181 0 181 210v1314h150v-1316q0 -166 -80 -254q-79 -88 -237 -88q-61 0 -124 23zM147 1396q0 42 24 69q24 29 68 29h6h-1q46 0 73 -28q27 -27 27 -70q0 -42 -27 -69q-28 -28 -73 -28h1h-10q-39 0 -64 28q-24 27 -24 69z" />
<glyph unicode="k" horiz-adv-x="1080" d="M158 -118v1676h150v-1042q32 35 553 553h193l-506 -503l546 -684h-182l-468 582l-136 -131v-451h-150z" />
<glyph unicode="l" horiz-adv-x="495" d="M173 -118v1676h150v-1676h-150z" />
<glyph unicode="m" horiz-adv-x="1956" d="M150 -118v1187h147l4 -163q126 185 366 185q271 0 353 -211q127 211 395 211q385 0 393 -421v-788h-150v779q-2 154 -65 223q-66 73 -207 73q-136 -1 -228 -87q-91 -85 -104 -208v-780h-151v788q-2 287 -273 287q-114 0 -200 -73q-85 -71 -128 -195v-807h-152z" />
<glyph unicode="n" horiz-adv-x="1212" d="M158 -118v1187h144l4 -172q131 194 370 194q381 0 383 -434v-775h-151v777q0 151 -63 224q-65 74 -200 74q-120 0 -206 -73q-90 -72 -132 -193v-809h-149z" />
<glyph unicode="o" horiz-adv-x="1235" d="M86 467v25v16q0 247 148 414q151 169 372 169h10q238 0 387 -168q146 -166 146 -439v-27q0 -174 -67 -309q-69 -139 -187 -214q-121 -74 -276 -74q-238 0 -387 166q-146 167 -146 441zM237 457q0 -208 106 -338q105 -129 276 -129q168 0 273 129q107 133 107 348v25 q0 132 -48 241q-49 109 -136 167q-88 59 -199 59q-165 0 -272 -131q-107 -133 -107 -347v-24z" />
<glyph unicode="p" d="M157 -567v1636h140l6 -143q127 165 356 165q210 0 336 -163q122 -167 122 -446v-18q0 -280 -123 -440q-125 -164 -332 -164q-226 0 -356 147v-574h-149zM306 188q92 -198 325 -198q160 0 247 128q88 128 88 368q0 222 -90 347q-88 124 -246 124q-236 0 -324 -214v-555z " />
<glyph unicode="q" horiz-adv-x="1230" d="M106 469v17q0 278 123 440q125 165 340 165q227 0 351 -160l1 35l1 35v37.5t1 30.5h143v-1636h-151v573q-126 -146 -348 -146q-209 0 -336 166q-125 166 -125 443zM257 464q0 -223 89 -350q88 -124 244 -124q226 0 325 194v567q-97 208 -322 208q-160 0 -247 -126 q-89 -130 -89 -369z" />
<glyph unicode="r" horiz-adv-x="742" d="M158 -118v1187h147l2 -154q107 176 318 176q55 0 96 -19l-3 -124l-13 -10q-42 8 -85 8q-113 0 -196 -68q-81 -66 -117 -188v-808h-149z" />
<glyph unicode="s" horiz-adv-x="1117" d="M98 230h150q8 -119 91 -179q85 -61 227 -61q133 0 211 57q79 59 79 142q0 90 -75 147q-72 56 -226 87q-159 34 -244 76q-174 87 -174 263q0 142 119 236q124 93 302 93q195 0 319 -99q123 -104 123 -271h-151q0 108 -81 173q-83 65 -210 65q-122 0 -198 -54 q-72 -55 -72 -138q0 -82 59 -128q62 -45 230 -85q170 -40 257 -87q173 -93 173 -272q0 -150 -125 -245q-124 -90 -316 -90q-204 0 -337 101q-131 102 -131 269z" />
<glyph unicode="t" horiz-adv-x="709" d="M14 942v127h215v299h150v-299h242v-127h-242v-767q0 -93 33 -136q34 -44 109 -44q28 0 115 12l5 -125q-60 -22 -149 -22q-263 0 -263 315v767h-215z" />
<glyph unicode="u" horiz-adv-x="1212" d="M153 300v769h150v-753q0 -322 259 -322q268 0 344 224v851h150v-1187h-146l-3 158l20 -6q-117 -174 -380 -174q-389 0 -394 440z" />
<glyph unicode="v" horiz-adv-x="1061" d="M26 1069h154l352 -967l348 967h154l-445 -1187h-118z" />
<glyph unicode="w" horiz-adv-x="1664" d="M53 1069h156l258 -959l297 959h127l298 -968q10 40 256 968h158l-347 -1187h-126l-305 951v-2l-1 -4q0 -1 -2.5 -6t-3.5 -9q-10 -36 -33 -107q-21 -66 -57 -181t-94.5 -299.5t-108.5 -342.5h-127z" />
<glyph unicode="x" horiz-adv-x="1073" d="M31 -118l420 604q-8 12 -202 291l-102 148q-21 31 -55.5 80t-44.5 64h178l309 -464l310 464h179l-403 -583l420 -604h-178l-326 485l-327 -485h-178z" />
<glyph unicode="y" horiz-adv-x="1048" d="M20 1069h163l355 -962l333 962h162l-504 -1380l-26 -59q-97 -219 -305 -219q-47 0 -111 16l-1 128l79 -7q90 2 146 47q58 46 97 153l56 153q-17 45 -54.5 142t-56.5 148l-112 294q-45 118 -120 316.5t-101 267.5z" />
<glyph unicode="z" horiz-adv-x="1073" d="M83 -10l696 947h-675v132h870v-110l-699 -947h747v-130h-939v108z" />
<glyph unicode="{" horiz-adv-x="728" d="M62 467v133q250 0 250 271v246q1 395 383 511l33 -107q-266 -86 -266 -414v-230q0 -255 -182 -344q182 -90 182 -342v-246q6 -308 269 -396l-35 -96l-13 -7q-371 111 -371 509v239q0 273 -250 273z" />
<glyph unicode="|" horiz-adv-x="487" d="M181 -410v1883h131v-1883h-131z" />
<glyph unicode="}" horiz-adv-x="728" d="M-1 1521l35 107q382 -114 382 -517v-240q0 -271 249 -271v-133q-249 0 -249 -273v-239q0 -398 -381 -512l-35 97l6 13q253 85 259 392v241q0 264 192 346q-192 82 -192 344v230q0 332 -266 415z" />
<glyph unicode="~" horiz-adv-x="1511" d="M145 365q0 177 90 281q91 106 240 106q80 0 155 -35q83 -39 175 -124q74 -68 122 -94q50 -26 106 -26q90 0 142 68q54 69 54 186h123l10 -11q0 -168 -92 -272q-92 -107 -237 -107q-80 0 -151 31q-68 32 -167 117q-98 87 -142 108q-45 21 -98 21q-92 0 -141 -64 q-51 -64 -51 -183z" />
<glyph unicode="&#xa1;" horiz-adv-x="487" d="M150 994q0 34 25 61q24 25 65 25t65 -25t24 -61t-24 -62q-24 -25 -65 -25t-65 25q-25 27 -25 62zM181 -495l7 1131h119l7 -1131h-133z" />
<glyph unicode="&#xa2;" horiz-adv-x="1202" d="M128 459v39q0 240 114 396q114 157 315 182v237h129v-236q166 -16 275 -130q108 -112 114 -282h-124q-9 137 -99 221t-227 84q-175 0 -271 -126q-97 -127 -97 -353v-39q0 -221 97 -347q96 -125 272 -125q134 0 224 74t101 198h124q-9 -150 -120 -255t-269 -123v-246h-129 v247q-200 24 -314 179q-115 156 -115 405z" />
<glyph unicode="&#xa3;" horiz-adv-x="1260" d="M101 588v112h197l-9 312q0 218 119 344q120 127 319 127q195 0 309 -114t114 -304h-132q0 145 -81 225q-82 80 -220 80q-135 0 -214 -95q-80 -97 -80 -263l9 -312h371v-112h-368l10 -299q1 -187 -69 -285h803v-112h-1075v112h106q56 14 83 115q21 81 20 169l-10 300h-202 z" />
<glyph unicode="&#xa4;" horiz-adv-x="1596" d="M118 -43l171 173q-134 182 -134 418q0 246 143 429l-180 184l91 94l180 -184q179 152 409 152q229 0 409 -154l182 187l93 -95l-185 -189q141 -183 141 -424q0 -231 -132 -414l176 -177l-93 -94l-170 173q-84 -78 -191 -121q-109 -44 -230 -44q-243 0 -422 164l-167 -171 zM277 548q0 -150 69 -279q68 -128 192 -204q122 -75 260 -75q137 0 259 76t190 204q69 129 69 278q0 148 -71 278q-70 129 -190 202q-119 73 -257 73q-140 0 -259 -73q-121 -74 -191 -202q-71 -130 -71 -278z" />
<glyph unicode="&#xa5;" horiz-adv-x="1317" d="M47 1461h154l453 -778l454 778h155l-489 -809h395v-95h-450v-220h450v-96h-450v-349h-132v349h-447v96h447v220h-447v95h394z" />
<glyph unicode="&#xa6;" horiz-adv-x="478" d="M171 -399v831h130v-831h-130zM171 645v816h130v-816h-130z" />
<glyph unicode="&#xa7;" horiz-adv-x="1335" d="M110 -177l130 2q0 -167 111 -262q112 -95 303 -95q171 0 273 75q101 74 101 197q0 84 -37 134q-37 51 -123 93q-89 44 -277 94q-189 51 -285 107q-93 54 -142 133q-47 75 -47 185q0 109 62 184q63 76 178 112q-92 51 -142 126q-50 76 -50 192q0 173 139 278t368 105 q242 0 376 -122t134 -342h-129q0 157 -103 256q-102 98 -278 98q-177 0 -278 -74q-100 -73 -100 -198q0 -85 34 -135q36 -53 115 -92q83 -41 253 -90q212 -54 313 -109t150 -133q48 -77 48 -185q0 -107 -67 -183q-66 -75 -184 -111q96 -50 150 -127q52 -74 52 -193 q0 -179 -135 -281q-136 -103 -369 -103q-119 0 -222 30t-177 92q-145 123 -145 342zM246 488q0 -91 38 -141q40 -52 125 -92q95 -44 306 -102l99 -30q120 13 192 76q71 62 71 155q0 105 -73 169q-72 63 -258 123l-256 77q-119 -14 -181 -76q-63 -63 -63 -159z" />
<glyph unicode="&#xa8;" horiz-adv-x="949" d="M154 1397q0 36 23 62q22 25 65 25q42 0 66 -25t24 -62q0 -35 -24 -60t-66 -25q-43 0 -65 25q-23 26 -23 60zM625 1396q0 36 24 62q24 25 64 25q43 0 67 -25q23 -24 23 -62q0 -36 -23 -60q-24 -25 -67 -25q-40 0 -64 25q-24 26 -24 60z" />
<glyph unicode="&#xa9;" horiz-adv-x="1764" d="M104 678q0 223 102 409q99 183 284 299q183 108 391 108q209 0 390 -108q184 -117 282 -299q102 -184 102 -409q0 -216 -98 -403q-99 -189 -280 -301q-182 -116 -396 -116q-213 0 -397 115q-183 116 -280 299q-100 188 -100 406zM218 678q0 -176 86 -350 q88 -164 243 -259q157 -96 334 -96q173 0 331 95q153 94 241 256q89 167 89 354t-88 350q-88 162 -242 256q-157 94 -331 94q-187 0 -338 -95q-155 -99 -240 -259q-85 -165 -85 -346zM500 631v97q0 192 101 310q102 119 269 119q166 0 258 -93q92 -94 92 -266h-128 q0 241 -222 241q-107 0 -175 -83q-66 -82 -66 -233v-98q0 -139 66 -226q65 -83 175 -83q221 0 221 241h117l11 -10q0 -168 -91 -259q-92 -90 -258 -90q-169 0 -270 116q-100 118 -100 317z" />
<glyph unicode="&#xaa;" horiz-adv-x="976" d="M169 871q0 118 90 184t265 66h150v66q0 92 -43 142t-131 50q-96 0 -152 -38t-56 -116l-115 7q0 110 89 181q88 70 234 70q133 0 213 -77q79 -76 79 -222v-339q0 -99 27 -193h-119q-17 49 -23 101q-92 -116 -240 -116q-126 0 -197 63t-71 171zM287 875q0 -136 172 -136 q57 0 119 33t96 79v182h-140q-247 0 -247 -158z" />
<glyph unicode="&#xab;" horiz-adv-x="1005" d="M133 460v21l318 409h113l-298 -420l298 -418h-113zM466 460v21l318 409h113l-298 -420l298 -418h-113z" />
<glyph unicode="&#xad;" horiz-adv-x="631" d="M53 531v108h516v-108h-516z" />
<glyph unicode="&#xae;" horiz-adv-x="1770" d="M99 678q0 225 101 409q99 183 284 299q183 108 391 108q209 0 390 -108q184 -112 284 -299q103 -186 103 -409q0 -218 -100 -406q-98 -186 -281 -299q-182 -115 -396 -115q-212 0 -397 115q-182 115 -279 299q-100 188 -100 406zM212 678q0 -179 89 -354 q92 -167 242 -257q156 -94 332 -94q174 0 332 94q156 95 242 257q88 167 88 354q0 188 -86 348q-83 158 -241 257q-154 95 -335 95q-178 0 -333 -94q-156 -96 -241 -256q-89 -164 -89 -350zM584 227v926h290q339 0 339 -278q0 -139 -137 -211q123 -56 123 -229q0 -88 4 -117 q7 -44 14 -62v-29h-128q-19 52 -19 208q0 90 -37 127q-38 37 -130 37h-192v-372h-127zM711 719h185q85 0 137 43q52 42 52 112q0 87 -44 122q-45 36 -153 39h-177v-316z" />
<glyph unicode="&#xaf;" horiz-adv-x="942" d="M114 1357v104h722v-104h-722z" />
<glyph unicode="&#xb1;" horiz-adv-x="1169" d="M91 676v109h446v473h119v-473h422v-109h-422v-472h-119v472h-446zM138 1h900v-109h-900v109z" />
<glyph unicode="&#xb4;" horiz-adv-x="620" d="M134 1234l205 301h157l-249 -301h-113z" />
<glyph unicode="&#xb7;" horiz-adv-x="542" d="M175 665q0 37 24 63t67 26q42 0 68 -26q25 -25 25 -63t-25 -63t-68 -25t-67 25q-24 26 -24 63z" />
<glyph unicode="&#xbb;" horiz-adv-x="999" d="M124 67l297 418l-297 425h115l318 -414v-21l-318 -408h-115zM467 67l298 418l-298 425h115l318 -414v-21l-318 -408h-115z" />
<glyph unicode="&#xd7;" horiz-adv-x="1155" d="M101 85l385 393l-369 378l84 86l369 -377l370 377l85 -86l-370 -378l386 -393l-85 -85l-386 393l-385 -393z" />
<glyph unicode="&#xf7;" horiz-adv-x="1254" d="M77 587v124h1076v-124h-1076zM533 206q0 38 24 64t67 26q42 0 68 -26q25 -25 25 -64q0 -38 -25 -63t-68 -25t-67 25t-24 63zM533 1065q0 37 24 63t67 26q42 0 68 -26q25 -25 25 -63t-25 -63t-68 -25t-67 25q-24 26 -24 63z" />
<glyph unicode="&#x2c6;" horiz-adv-x="948" d="M173 1248v15l256 274h82l260 -278v-11h-120l-181 197l-180 -197h-117z" />
<glyph unicode="&#x2dc;" horiz-adv-x="960" d="M114 1258q0 99 59 164q58 64 151 64q52 0 89 -18q35 -17 69 -41q33 -23 65 -41q33 -18 77 -18q51 0 85 35q35 37 35 96l96 -6q0 -105 -61 -167t-149 -62q-82 0 -161 59t-140 59q-49 0 -84 -33q-34 -33 -34 -94z" />
<glyph unicode="&#x2000;" horiz-adv-x="855" />
<glyph unicode="&#x2001;" horiz-adv-x="1711" />
<glyph unicode="&#x2002;" horiz-adv-x="855" />
<glyph unicode="&#x2003;" horiz-adv-x="1711" />
<glyph unicode="&#x2004;" horiz-adv-x="570" />
<glyph unicode="&#x2005;" horiz-adv-x="427" />
<glyph unicode="&#x2006;" horiz-adv-x="285" />
<glyph unicode="&#x2007;" horiz-adv-x="285" />
<glyph unicode="&#x2008;" horiz-adv-x="213" />
<glyph unicode="&#x2009;" horiz-adv-x="342" />
<glyph unicode="&#x200a;" horiz-adv-x="95" />
<glyph unicode="&#x2010;" horiz-adv-x="631" d="M42 519v131h538v-131h-538z" />
<glyph unicode="&#x2011;" horiz-adv-x="631" d="M42 519v131h538v-131h-538z" />
<glyph unicode="&#x2012;" horiz-adv-x="631" d="M42 519v131h538v-131h-538z" />
<glyph unicode="&#x2013;" horiz-adv-x="1117" d="M42 519v131h1024v-131h-1024z" />
<glyph unicode="&#x2014;" horiz-adv-x="2141" d="M42 519v131h2048v-131h-2048z" />
<glyph unicode="&#x2018;" horiz-adv-x="392" d="M106 1101v121q0 100 40 190q42 94 110 155l78 -55q-97 -125 -100 -273v-138h-128z" />
<glyph unicode="&#x2019;" horiz-adv-x="392" d="M67 1133q97 130 100 274v141h127v-109q0 -225 -151 -362z" />
<glyph unicode="&#x201a;" horiz-adv-x="380" d="M45 -301q88 119 97 248l1 166h129v-109q0 -224 -151 -361z" />
<glyph unicode="&#x201c;" horiz-adv-x="659" d="M107 1101v121q0 100 40 190q41 92 110 155l78 -55q-97 -127 -100 -273v-138h-128zM378 1101v121q0 100 40 190q42 94 110 155l77 -55q-96 -124 -99 -273v-138h-128z" />
<glyph unicode="&#x201d;" horiz-adv-x="665" d="M73 1133q98 131 101 274v141h127v-109q0 -226 -151 -362zM337 1133q96 128 99 274v141h128v-109q0 -225 -151 -362z" />
<glyph unicode="&#x201e;" horiz-adv-x="639" d="M45 -311q95 131 98 282v176h129v-141q0 -233 -151 -373zM297 -311q94 131 97 282v176h130v-141q0 -233 -151 -373z" />
<glyph unicode="&#x2022;" horiz-adv-x="713" d="M158 667v36q0 86 54 139q56 54 145 54q88 0 143 -52q54 -51 57 -136v-43q0 -88 -55 -139q-56 -51 -144 -51q-91 0 -146 52q-54 51 -54 140z" />
<glyph unicode="&#x2026;" horiz-adv-x="1414" d="M179 -30q0 37 24 64t67 27q42 0 68 -27q25 -26 25 -64t-25 -62q-27 -25 -68 -25q-42 0 -67 25q-24 24 -24 62zM621 -30q0 37 24 64t68 27q43 0 67 -27q25 -28 25 -64q0 -37 -25 -62t-67 -25q-43 0 -68 25q-24 24 -24 62zM1044 -30q0 37 24 64t67 27t68 -27q25 -26 25 -64 t-25 -62q-27 -25 -68 -25q-42 0 -67 25q-24 24 -24 62z" />
<glyph unicode="&#x202f;" horiz-adv-x="342" />
<glyph unicode="&#x2039;" horiz-adv-x="656" d="M117 481v20l318 409h113l-298 -419l298 -419h-113z" />
<glyph unicode="&#x203a;" horiz-adv-x="656" d="M104 67l298 418l-298 425h115l318 -414v-21l-318 -408h-115z" />
<glyph unicode="&#x205f;" horiz-adv-x="427" />
<glyph unicode="&#x25fc;" horiz-adv-x="1068" d="M0 0v1069h1069v-1069h-1069z" />
</font>
</defs>
</svg>
